<?xml version="1.0" standalone="no"?>
<!DOCTYPE svg PUBLIC "-//W3C//DTD SVG 1.1//EN" "http://www.w3.org/Graphics/SVG/1.1/DTD/svg11.dtd" >
<svg xmlns="http://www.w3.org/2000/svg">
<metadata>Generated by IcoMoon</metadata>
<defs>
<font id="iconsax" horiz-adv-x="1024">
<font-face units-per-em="1024" ascent="960" descent="-64" />
<missing-glyph horiz-adv-x="1024" />
<glyph unicode="&#x0;" glyph-name="call-minus4" d="M744.533-10.667c-48.213 0-98.987 11.52-151.467 33.707-51.2 21.76-102.827 51.627-153.173 87.893-50.347 36.693-98.56 78.080-143.787 122.88-45.227 45.653-86.187 93.867-122.453 143.36-36.693 51.2-66.133 101.973-87.040 151.893-22.187 52.48-33.28 103.68-33.28 151.893 0 33.28 5.973 64.853 17.493 94.293 12.373 30.72 31.147 58.453 57.173 82.773 32.853 32 70.4 48.64 110.507 48.64 16.64 0 33.707-3.84 48.213-10.667 16.64-7.68 30.72-19.2 40.96-34.56l98.987-139.52c8.96-12.373 15.787-24.32 20.48-36.267 5.547-12.8 8.533-25.6 8.533-37.973 0-16.213-4.693-32-13.653-46.933-6.4-11.52-16.213-23.893-28.587-36.267l-29.013-30.293c0.427-1.28 0.853-2.133 1.28-2.987 5.12-8.96 15.36-24.32 34.987-47.36 20.48-23.893 40.533-45.227 60.16-65.707 25.6-25.173 46.080-44.373 65.707-60.587 24.32-20.48 40.107-30.72 49.493-35.413l-0.853-2.133 31.147 30.72c13.227 13.227 26.027 23.040 38.4 29.44 23.467 14.507 53.333 17.067 83.2 4.693 11.093-4.693 23.040-11.093 35.84-20.053l141.653-100.693c15.36-10.667 27.307-24.32 34.133-40.533 6.4-16.213 9.387-31.147 9.387-46.080 0-20.48-4.693-40.96-13.653-60.16s-20.053-35.84-34.133-51.2c-24.32-26.88-50.773-46.080-81.493-58.453-29.44-11.947-61.44-18.347-95.147-18.347zM238.507 842.667c-23.467 0-45.227-10.24-66.133-30.72-19.2-18.347-33.28-38.4-41.813-60.16-8.96-22.187-13.227-45.653-13.227-70.827 0-39.68 9.387-82.773 28.16-127.147 19.2-45.227 46.080-92.16 80.213-139.093s72.96-92.587 115.627-135.68c42.667-42.24 88.747-81.493 136.107-116.053 46.080-33.707 93.44-61.013 140.373-80.64 72.96-31.147 141.227-38.4 197.547-14.933 21.76 8.96 40.96 22.613 58.453 42.24 9.813 10.667 17.493 22.187 23.893 35.84 5.12 10.667 7.68 21.76 7.68 32.853 0 6.827-1.28 13.653-4.693 21.333-0.853 2.133-3.84 7.253-11.947 12.8l-141.653 100.693c-8.533 5.973-16.213 10.24-23.467 13.227-11.093 4.267-18.347 4.693-27.733-1.28-8.533-4.267-16.213-10.667-24.747-19.2l-32.427-32c-16.64-16.213-42.24-20.053-61.867-12.8l-11.52 5.12c-17.493 9.387-37.973 23.893-60.587 43.093-20.907 17.493-42.24 37.547-69.547 64.427-21.333 21.76-41.813 44.373-63.573 69.12-20.053 23.467-34.56 43.52-43.52 60.16l-5.547 12.8c-2.56 9.387-3.413 14.933-3.413 20.907 0 15.36 5.547 29.013 16.213 39.68l32 33.28c8.533 8.533 14.933 16.64 19.2 23.893 3.413 5.547 4.693 10.24 4.693 14.507 0 3.413-1.28 8.533-3.413 13.653-2.56 7.253-7.253 14.507-13.227 23.040l-98.987 139.947c-4.267 5.973-9.387 10.24-15.787 13.227-6.827 2.987-14.080 4.693-21.333 4.693zM595.2 319.573l-6.827-29.013 11.52 29.867c-1.707 0.427-3.413 0-4.693-0.853zM874.667 672h-213.333c-17.493 0-32 14.507-32 32s14.507 32 32 32h213.333c17.493 0 32-14.507 32-32s-14.507-32-32-32z" />
<glyph unicode="&#x1;" glyph-name="call-outgoing4" d="M744.533-10.667c-48.213 0-98.987 11.52-151.467 33.707-51.2 21.76-102.827 51.627-153.173 87.893-49.92 36.693-98.133 77.653-143.787 122.453-45.227 45.653-86.187 93.867-122.453 143.36-36.693 51.2-66.133 102.4-87.040 151.893-22.187 52.907-33.28 104.107-33.28 152.32 0 33.28 5.973 64.853 17.493 94.293 11.947 30.293 31.147 58.453 57.173 82.773 32.853 32.427 70.4 48.64 110.507 48.64 16.64 0 33.707-3.84 48.213-10.667 16.64-7.68 30.72-19.2 40.96-34.56l98.987-139.52c8.96-12.373 15.787-24.32 20.48-36.267 5.547-12.8 8.533-25.6 8.533-37.973 0-16.213-4.693-32-13.653-46.933-6.4-11.52-16.213-23.893-28.587-36.267l-29.013-30.293c0.427-1.28 0.853-2.133 1.28-2.987 5.12-8.96 15.36-24.32 34.987-47.36 20.907-23.893 40.533-45.653 60.16-65.707 25.173-24.747 46.080-44.373 65.707-60.587 24.32-20.48 40.107-30.72 49.493-35.413l-0.853-2.133 31.147 30.72c13.227 13.227 26.027 23.040 38.4 29.44 23.467 14.507 53.333 17.067 83.2 4.693 11.093-4.693 23.040-11.093 35.84-20.053l141.653-100.693c15.787-10.667 27.307-24.32 34.133-40.533 6.4-16.213 9.387-31.147 9.387-46.080 0-20.48-4.693-40.96-13.653-60.16s-20.053-35.84-34.133-51.2c-24.32-26.88-50.773-46.080-81.493-58.453-29.44-11.947-61.44-18.347-95.147-18.347zM238.507 842.667c-23.467 0-45.227-10.24-66.133-30.72-19.627-18.347-33.28-38.4-41.813-60.16-8.96-22.187-13.227-45.653-13.227-70.827 0-39.68 9.387-82.773 28.16-127.147 19.2-45.227 46.080-92.16 80.213-139.093s72.96-92.587 115.627-135.68c42.667-42.24 88.747-81.493 136.107-116.053 46.080-33.707 93.44-61.013 140.373-80.64 72.96-31.147 141.227-38.4 197.547-14.933 21.76 8.96 40.96 22.613 58.453 42.24 9.813 10.667 17.493 22.187 23.893 35.84 5.12 10.667 7.68 21.76 7.68 32.853 0 6.827-1.28 13.653-4.693 21.333-1.28 2.56-3.84 7.253-11.947 12.8l-141.653 100.693c-8.533 5.973-16.213 10.24-23.467 13.227-9.387 3.84-13.227 7.68-27.733-1.28-8.533-4.267-16.213-10.667-24.747-19.2l-32.427-32c-16.64-16.213-42.24-20.053-61.867-12.8l-11.52 5.12c-17.493 9.387-37.973 23.893-60.587 43.093-20.48 17.493-42.667 37.973-69.547 64.427-20.907 21.333-41.813 43.947-63.573 69.12-20.053 23.467-34.56 43.52-43.52 60.16l-5.12 12.8c-2.56 9.813-3.413 15.36-3.413 21.333 0 15.36 5.547 29.013 16.213 39.68l32 33.28c8.533 8.533 14.933 16.64 19.2 23.893 3.413 5.547 4.693 10.24 4.693 14.507 0 3.413-1.28 8.533-3.413 13.653-2.987 6.827-7.68 14.507-13.653 22.613l-98.987 139.947c-4.267 5.973-9.387 10.24-15.787 13.227-6.827 2.987-14.080 4.693-21.333 4.693zM595.2 319.573l-6.827-29.013 11.52 29.867c-2.133 0.427-3.84 0-4.693-0.853zM853.342 552.533c-17.493 0-32 14.507-32 32v172.8h-172.8c-17.493 0-32 14.507-32 32s14.507 32 32 32h204.8c17.493 0 32-14.507 32-32v-204.8c0-17.493-14.507-32-32-32z" />
<glyph unicode="&#x2;" glyph-name="call-received4" d="M744.533-10.667c-48.213 0-98.987 11.52-151.467 33.707-51.2 21.76-102.827 51.627-153.173 87.893-50.347 36.693-98.56 78.080-143.787 122.88-45.227 45.653-86.187 93.867-122.453 143.36-36.693 51.2-66.133 101.973-87.040 151.893-22.187 52.48-33.28 103.68-33.28 151.893 0 33.28 5.973 64.853 17.493 94.293 12.373 30.72 31.147 58.453 57.173 82.773 32.853 32 70.4 48.64 110.507 48.64 16.64 0 33.707-3.84 48.213-10.667 16.64-7.68 30.72-19.2 40.96-34.56l98.987-139.52c8.96-12.373 15.787-24.32 20.48-36.267 5.547-12.8 8.533-25.6 8.533-37.973 0-16.213-4.693-32-13.653-46.933-6.4-11.52-16.213-23.893-28.587-36.267l-29.013-30.293c0.427-1.28 0.853-2.133 1.28-2.987 5.12-8.96 15.36-24.32 34.987-47.36 20.48-23.893 40.533-45.227 60.16-65.707 25.6-25.173 46.080-44.373 65.707-60.587 24.32-20.48 40.107-30.72 49.493-35.413l-0.853-2.133 31.147 30.72c13.227 13.227 26.027 23.040 38.4 29.44 23.467 14.507 53.333 17.067 83.2 4.693 11.093-4.693 23.040-11.093 35.84-20.053l141.653-100.693c15.36-10.667 27.307-24.32 34.133-40.533 6.4-16.213 9.387-31.147 9.387-46.080 0-20.48-4.693-40.96-13.653-60.16s-20.053-35.84-34.133-51.2c-24.32-26.88-50.773-46.080-81.493-58.453-29.44-11.947-61.44-18.347-95.147-18.347zM238.507 842.667c-23.467 0-45.227-10.24-66.133-30.72-19.2-18.347-33.28-38.4-41.813-60.16-8.96-22.187-13.227-45.653-13.227-70.827 0-39.68 9.387-82.773 28.16-127.147 19.2-45.227 46.080-92.16 80.213-139.093s72.96-92.587 115.627-135.68c42.667-42.24 88.747-81.493 136.107-116.053 46.080-33.707 93.44-61.013 140.373-80.64 72.96-31.147 141.227-38.4 197.547-14.933 21.76 8.96 40.96 22.613 58.453 42.24 9.813 10.667 17.493 22.187 23.893 35.84 5.12 10.667 7.68 21.76 7.68 32.853 0 6.827-1.28 13.653-4.693 21.333-0.853 2.133-3.84 7.253-11.947 12.8l-141.653 100.693c-8.533 5.973-16.213 10.24-23.467 13.227-11.093 4.267-18.347 4.693-27.733-1.28-8.533-4.267-16.213-10.667-24.747-19.2l-32.427-32c-16.64-16.213-42.24-20.053-61.867-12.8l-11.52 5.12c-17.493 9.387-37.973 23.893-60.587 43.093-20.907 17.493-42.24 37.547-69.547 64.427-21.333 21.76-41.813 44.373-63.573 69.12-20.053 23.467-34.56 43.52-43.52 60.16l-5.547 12.8c-2.56 9.387-3.413 14.933-3.413 20.907 0 15.36 5.547 29.013 16.213 39.68l32 33.28c8.533 8.533 14.933 16.64 19.2 23.893 3.413 5.547 4.693 10.24 4.693 14.507 0 3.413-1.28 8.533-3.413 13.653-2.56 7.253-7.253 14.507-13.227 23.040l-98.987 139.947c-4.267 5.973-9.387 10.24-15.787 13.227-6.827 2.987-14.080 4.693-21.333 4.693zM595.2 319.573l-6.827-29.013 11.52 29.867c-1.707 0.427-3.413 0-4.693-0.853zM725.35 587.95c-8.107 0-16.213 2.987-22.613 9.387l-85.333 85.333c-12.373 12.373-12.373 32.853 0 45.227s32.853 12.373 45.227 0l62.72-62.72 148.053 147.627c12.373 12.373 32.853 12.373 45.227 0s12.373-32.853 0-45.227l-170.667-170.667c-6.4-5.547-14.507-8.96-22.613-8.96z" />
<glyph unicode="&#x3;" glyph-name="call-remove4" d="M744.533-10.667c-48.213 0-98.987 11.52-151.467 33.707-51.2 21.76-102.827 51.627-153.173 87.893-50.347 36.693-98.56 78.080-143.787 122.88-45.227 45.653-86.187 93.867-122.453 143.36-36.693 51.2-66.133 101.973-87.040 151.893-22.187 52.48-33.28 103.68-33.28 151.893 0 33.28 5.973 64.853 17.493 94.293 12.373 30.72 31.147 58.453 57.173 82.773 32.853 32 70.4 48.64 110.507 48.64 16.64 0 33.707-3.84 48.213-10.667 16.64-7.68 30.72-19.2 40.96-34.56l98.987-139.52c8.96-12.373 15.787-24.32 20.48-36.267 5.547-12.8 8.533-25.6 8.533-37.973 0-16.213-4.693-32-13.653-46.933-6.4-11.52-16.213-23.893-28.587-36.267l-29.013-30.293c0.427-1.28 0.853-2.133 1.28-2.987 5.12-8.96 15.36-24.32 34.987-47.36 20.48-23.893 40.533-45.227 60.16-65.707 25.6-25.173 46.080-44.373 65.707-60.587 24.32-20.48 40.107-30.72 49.493-35.413l-0.853-2.133 31.147 30.72c13.227 13.227 26.027 23.040 38.4 29.44 23.467 14.507 53.333 17.067 83.2 4.693 11.093-4.693 23.040-11.093 35.84-20.053l141.653-100.693c15.36-10.667 27.307-24.32 34.133-40.533 6.4-16.213 9.387-31.147 9.387-46.080 0-20.48-4.693-40.96-13.653-60.16s-20.053-35.84-34.133-51.2c-24.32-26.88-50.773-46.080-81.493-58.453-29.44-11.947-61.44-18.347-95.147-18.347zM238.507 842.667c-23.467 0-45.227-10.24-66.133-30.72-19.2-18.347-33.28-38.4-41.813-60.16-8.96-22.187-13.227-45.653-13.227-70.827 0-39.68 9.387-82.773 28.16-127.147 19.2-45.227 46.080-92.16 80.213-139.093s72.96-92.587 115.627-135.68c42.667-42.24 88.747-81.493 136.107-116.053 46.080-33.707 93.44-61.013 140.373-80.64 72.96-31.147 141.227-38.4 197.547-14.933 21.76 8.96 40.96 22.613 58.453 42.24 9.813 10.667 17.493 22.187 23.893 35.84 5.12 10.667 7.68 21.76 7.68 32.853 0 6.827-1.28 13.653-4.693 21.333-0.853 2.133-3.84 7.253-11.947 12.8l-141.653 100.693c-8.533 5.973-16.213 10.24-23.467 13.227-11.093 4.267-18.347 4.693-27.733-1.28-8.533-4.267-16.213-10.667-24.747-19.2l-32.427-32c-16.64-16.213-42.24-20.053-61.867-12.8l-11.52 5.12c-17.493 9.387-37.973 23.893-60.587 43.093-20.907 17.493-42.24 37.547-69.547 64.427-21.333 21.76-41.813 44.373-63.573 69.12-20.053 23.467-34.56 43.52-43.52 60.16l-5.547 12.8c-2.56 9.387-3.413 14.933-3.413 20.907 0 15.36 5.547 29.013 16.213 39.68l32 33.28c8.533 8.533 14.933 16.64 19.2 23.893 3.413 5.547 4.693 10.24 4.693 14.507 0 3.413-1.28 8.533-3.413 13.653-2.56 7.253-7.253 14.507-13.227 23.040l-98.987 139.947c-4.267 5.973-9.387 10.24-15.787 13.227-6.827 2.987-14.080 4.693-21.333 4.693zM595.2 319.573l-6.827-29.013 11.52 29.867c-1.707 0.427-3.413 0-4.693-0.853zM692.476 596.483c-8.107 0-16.213 2.987-22.613 9.387-12.373 12.373-12.373 32.853 0 45.227l151.040 151.040c12.373 12.373 32.853 12.373 45.227 0s12.373-32.853 0-45.227l-151.040-151.040c-5.973-5.973-14.507-9.387-22.613-9.387zM843.516 596.483c-8.107 0-16.213 2.987-22.613 9.387l-151.040 151.040c-12.373 12.373-12.373 32.853 0 45.227s32.853 12.373 45.227 0l151.040-151.040c12.373-12.373 12.373-32.853 0-45.227-6.4-5.973-14.507-9.387-22.613-9.387z" />
<glyph unicode="&#x4;" glyph-name="call-slash4" d="M744.538-10.675c-48.213 0-98.987 11.52-151.467 33.707-51.2 21.76-102.827 51.627-153.173 87.893l-18.773 14.080c-14.080 10.667-16.64 30.72-5.973 44.8s30.72 16.64 44.8 5.973l17.92-13.227c46.080-33.707 93.44-61.013 140.373-80.64 72.96-31.147 141.227-38.4 197.547-14.933 21.76 8.96 40.96 22.613 58.453 42.24 9.813 10.667 17.493 22.187 23.893 35.84 5.12 10.667 7.68 21.76 7.68 32.853 0 6.827-1.28 13.653-4.693 21.333-0.853 2.133-3.84 7.253-11.947 12.8l-141.653 100.693c-8.533 5.973-16.213 10.24-23.467 13.227-11.093 4.267-18.347 4.693-27.733-1.28-8.533-4.267-16.213-10.667-24.747-19.2l-32.427-32c-16.64-16.213-42.24-20.053-61.867-12.8-0.853 0.427-5.12 2.133-5.973 2.56-0.427 0.427-5.12 2.133-5.547 2.56-9.387 4.693-19.627 11.52-31.573 20.053-14.080 10.24-17.493 30.293-7.253 44.8s30.293 17.493 44.8 7.253c8.96-6.4 17.067-11.52 23.893-15.36l-0.427-2.56 31.147 31.147c13.227 13.227 26.027 23.040 38.4 29.44 23.467 14.507 53.333 17.067 83.2 4.693 11.093-4.693 23.040-11.093 35.84-20.053l141.653-100.693c15.36-10.667 27.307-24.32 34.133-40.533 6.4-16.213 9.387-31.147 9.387-46.080 0-20.48-4.693-40.96-13.653-60.16s-20.053-35.84-34.133-51.2c-24.32-26.88-50.773-46.080-81.493-58.453-29.44-12.373-61.44-18.773-95.147-18.773zM595.204 319.565l-6.827-29.013 11.52 29.867c-1.707 0.427-3.84 0-4.693-0.853zM318.72 224.427c-8.107 0-16.64 2.987-22.613 9.387-44.8 45.227-86.187 93.44-122.027 143.36-36.693 51.2-66.133 101.973-87.040 151.893-22.613 52.48-33.707 103.68-33.707 151.893 0 33.28 5.973 64.853 17.493 94.293 12.373 30.72 31.147 58.453 57.173 82.773 32.853 32 70.4 48.64 110.507 48.64 16.64 0 33.707-3.84 48.213-10.667 16.64-7.68 30.72-19.2 40.96-34.56l98.987-139.52c8.96-12.373 15.787-24.32 20.48-36.267 5.547-12.8 8.533-25.6 8.533-37.973 0-16.213-4.693-32-13.653-46.933-6.4-11.52-16.213-23.893-28.587-36.267l-29.013-30.293c0.427-1.28 0.853-2.133 1.28-2.987 5.12-8.96 15.36-24.32 34.987-47.36 20.48-23.893 40.533-45.227 60.16-65.707 12.373-12.8 12.373-32.853-0.427-45.227s-32.853-12.373-45.227 0.427c-20.907 21.333-41.387 43.947-63.147 69.12-20.053 23.467-34.56 43.52-43.52 60.16-0.853 1.707-1.707 3.413-2.133 5.12l-2.987 7.253c-2.56 9.387-3.413 14.933-3.413 20.907 0 15.36 5.547 29.013 16.213 39.68l32 33.28c8.533 8.533 14.933 16.64 19.2 23.893 3.413 5.547 4.693 10.24 4.693 14.507 0 3.413-1.28 8.533-3.413 13.653-3.413 8.107-8.107 15.36-14.080 23.893l-98.987 139.947c-4.267 5.973-9.387 10.24-15.787 13.227s-13.653 4.693-21.333 4.693c-23.467 0-45.227-10.24-66.133-30.72-19.2-18.347-33.28-38.4-41.813-60.16-8.96-22.187-13.227-45.653-13.227-70.827 0-39.68 9.387-82.773 28.16-127.147 19.2-45.227 46.080-92.16 80.213-139.093s72.96-92.587 115.627-135.68c12.373-12.373 12.373-32.853 0-45.227-6.4-6.4-14.507-9.387-22.613-9.387zM85.352-10.662c-8.107 0-16.213 2.987-22.613 9.387-12.373 12.373-12.373 32.853 0 45.227l853.332 853.332c12.373 12.373 32.853 12.373 45.227 0s12.373-32.853 0-45.227l-853.332-853.332c-6.4-6.4-14.507-9.387-22.613-9.387z" />
<glyph unicode="&#x5;" glyph-name="camera4" d="M735.561-10.667h-447.147c-119.467 0-195.413 71.253-202.24 190.293l-22.187 352c-3.413 53.333 14.933 104.533 51.627 143.36 36.267 38.827 87.467 61.013 140.373 61.013 13.653 0 26.88 8.107 33.28 20.907l30.72 61.013c25.173 49.92 88.32 88.747 143.36 88.747h97.707c55.040 0 117.76-38.827 142.933-88.32l30.72-62.293c6.4-11.947 19.2-20.053 33.28-20.053 52.907 0 104.107-22.187 140.373-61.013 36.693-39.253 55.040-90.027 51.627-143.36l-22.187-352.427c-7.68-120.747-81.493-189.867-202.24-189.867zM463.347 842.667c-31.573 0-71.68-24.747-86.187-53.333l-30.72-61.44c-17.92-34.56-52.48-55.893-90.453-55.893-35.84 0-69.12-14.507-93.867-40.533-24.32-26.027-36.693-60.16-34.133-95.573l22.187-352.427c5.12-86.187 51.627-130.133 138.24-130.133h447.147c86.187 0 132.693 43.947 138.24 130.133l22.187 352.427c2.133 35.413-9.813 69.547-34.133 95.573-24.747 26.027-58.027 40.533-93.867 40.533-37.973 0-72.533 21.333-90.453 55.040l-31.147 62.293c-14.080 28.16-54.187 52.907-85.76 52.907h-97.28v0.427zM576 586.667h-128c-17.493 0-32 14.507-32 32s14.507 32 32 32h128c17.493 0 32-14.507 32-32s-14.507-32-32-32zM512 160c-94.293 0-170.667 76.373-170.667 170.667s76.373 170.667 170.667 170.667c94.293 0 170.667-76.373 170.667-170.667s-76.373-170.667-170.667-170.667zM512 437.333c-58.88 0-106.667-47.787-106.667-106.667s47.787-106.667 106.667-106.667c58.88 0 106.667 47.787 106.667 106.667s-47.787 106.667-106.667 106.667z" />
<glyph unicode="&#x6;" glyph-name="camera-slash4" d="M384 501.333h-128c-17.493 0-32 14.507-32 32s14.507 32 32 32h128c17.493 0 32-14.507 32-32s-14.507-32-32-32zM735.565-10.667h-447.148c-17.493 0-32 14.507-32 32s14.507 32 32 32h447.148c86.187 0 132.693 43.947 138.24 130.133l22.187 352.425c2.133 30.293-6.827 60.16-25.173 84.48-10.667 14.080-7.68 34.133 6.4 44.8s34.133 7.68 44.8-6.4c27.307-36.693 40.96-81.493 37.973-127.145l-22.187-352.427c-7.68-120.747-81.493-189.867-202.24-189.867zM146.76 55.040c-10.24 0-20.48 5.12-26.88 14.507-19.627 29.867-31.146 66.987-33.706 110.080l-22.187 352c-3.413 53.333 14.933 104.533 51.627 143.36 36.267 38.827 87.467 61.013 140.373 61.013 13.653 0 26.88 8.107 33.28 20.907l30.72 61.013c25.173 49.92 88.32 88.747 143.36 88.747h97.707c55.040 0 117.76-38.827 142.933-88.32l30.72-62.293c6.4-11.947 19.2-20.053 33.28-20.053 17.493 0 32-14.507 32-32s-14.507-32-32-32c-37.973 0-72.533 21.333-90.453 55.040l-31.147 62.293c-14.080 28.16-54.187 52.907-85.76 52.907h-97.707c-31.573 0-71.68-24.747-86.187-53.333l-30.293-61.013c-17.92-34.56-52.48-55.893-90.453-55.893-35.84 0-69.12-14.507-93.867-40.533-24.32-26.027-36.693-60.16-34.133-95.573l22.187-352.427c1.706-31.147 9.813-58.453 23.467-78.507 9.813-14.933 5.546-34.56-8.96-44.373-5.547-3.84-11.946-5.547-17.92-5.547zM511.987 159.996c-37.973 0-75.093 12.8-104.961 36.267-14.080 11.093-16.213 31.147-5.547 44.8 11.093 14.080 31.148 16.213 44.801 5.547 18.773-14.507 41.813-22.613 65.707-22.613 58.88 0 106.667 47.787 106.667 106.667 0 20.48-5.547 40.107-16.213 56.747-9.387 14.933-5.12 34.56 9.813 44.373 14.933 9.387 34.56 5.12 44.373-9.813 17.067-26.88 26.453-58.453 26.453-90.88-0.427-94.72-76.8-171.093-171.093-171.093zM85.31-10.662c-8.107 0-16.213 2.987-22.613 9.387-12.373 12.373-12.373 32.853 0 45.227l853.335 853.332c12.373 12.373 32.853 12.373 45.227 0s12.373-32.853 0-45.227l-853.335-853.332c-6.4-6.4-14.507-9.387-22.613-9.387z" />
<glyph unicode="&#x7;" glyph-name="candle4" d="M277.333-10.667c-17.493 0-32 14.507-32 32v298.667c0 17.493 14.507 32 32 32s32-14.507 32-32v-298.667c0-17.493-14.507-32-32-32zM277.333 714.667c-17.493 0-32 14.507-32 32v128c0 17.493 14.507 32 32 32s32-14.507 32-32v-128c0-17.493-14.507-32-32-32zM746.667-10.667c-17.493 0-32 14.507-32 32v128c0 17.493 14.507 32 32 32s32-14.507 32-32v-128c0-17.493-14.507-32-32-32zM746.667 544c-17.493 0-32 14.507-32 32v298.667c0 17.493 14.507 32 32 32s32-14.507 32-32v-298.667c0-17.493-14.507-32-32-32zM320 288h-85.333c-73.387 0-117.333 43.947-117.333 117.333v256c0 73.387 43.947 117.333 117.333 117.333h85.333c73.387 0 117.333-43.947 117.333-117.333v-256c0-73.387-43.947-117.333-117.333-117.333zM234.667 714.667c-37.973 0-53.333-15.36-53.333-53.333v-256c0-37.973 15.36-53.333 53.333-53.333h85.333c37.973 0 53.333 15.36 53.333 53.333v256c0 37.973-15.36 53.333-53.333 53.333h-85.333zM789.333 117.333h-85.333c-73.387 0-117.333 43.947-117.333 117.333v256c0 73.387 43.947 117.333 117.333 117.333h85.333c73.387 0 117.333-43.947 117.333-117.333v-256c0-73.387-43.947-117.333-117.333-117.333zM704 544c-37.973 0-53.333-15.36-53.333-53.333v-256c0-37.973 15.36-53.333 53.333-53.333h85.333c37.973 0 53.333 15.36 53.333 53.333v256c0 37.973-15.36 53.333-53.333 53.333h-85.333z" />
<glyph unicode="&#x8;" glyph-name="candle-24" d="M938.667 181.333h-298.667c-17.493 0-32 14.507-32 32s14.507 32 32 32h298.667c17.493 0 32-14.507 32-32s-14.507-32-32-32zM213.333 181.333h-128c-17.493 0-32 14.507-32 32s14.507 32 32 32h128c17.493 0 32-14.507 32-32s-14.507-32-32-32zM938.667 650.667h-128c-17.493 0-32 14.507-32 32s14.507 32 32 32h128c17.493 0 32-14.507 32-32s-14.507-32-32-32zM384 650.667h-298.667c-17.493 0-32 14.507-32 32s14.507 32 32 32h298.667c17.493 0 32-14.507 32-32s-14.507-32-32-32zM554.667 53.333h-256c-73.387 0-117.333 43.947-117.333 117.333v85.333c0 73.387 43.947 117.333 117.333 117.333h256c73.387 0 117.333-43.947 117.333-117.333v-85.333c0-73.387-43.947-117.333-117.333-117.333zM298.667 309.333c-37.973 0-53.333-15.36-53.333-53.333v-85.333c0-37.973 15.36-53.333 53.333-53.333h256c37.973 0 53.333 15.36 53.333 53.333v85.333c0 37.973-15.36 53.333-53.333 53.333h-256zM725.333 522.667h-256c-73.387 0-117.333 43.947-117.333 117.333v85.333c0 73.387 43.947 117.333 117.333 117.333h256c73.387 0 117.333-43.947 117.333-117.333v-85.333c0-73.387-43.947-117.333-117.333-117.333zM469.333 778.667c-37.973 0-53.333-15.36-53.333-53.333v-85.333c0-37.973 15.36-53.333 53.333-53.333h256c37.973 0 53.333 15.36 53.333 53.333v85.333c0 37.973-15.36 53.333-53.333 53.333h-256z" />
<glyph unicode="&#x9;" glyph-name="car4" d="M853.308 458.662h-682.668c-9.813 0-18.773 4.267-24.747 11.947-5.973 7.253-8.533 17.493-6.4 26.88l48.213 230.401c15.787 74.667 47.787 143.36 174.507 143.36h299.948c126.72 0 158.72-69.12 174.507-143.36l48.213-230.828c2.133-9.387-0.427-19.2-6.4-26.88-6.4-7.253-15.36-11.52-25.173-11.52zM209.893 522.662h603.735l-40.107 192.001c-11.947 55.893-26.027 92.587-111.787 92.587h-299.521c-85.76 0-99.84-36.693-111.787-92.587l-40.533-192.001zM851.61-10.667h-80.213c-69.12 0-82.347 39.68-90.88 65.707l-8.533 25.6c-11.093 32.427-12.373 36.693-50.773 36.693h-218.453c-38.4 0-40.96-7.253-50.773-36.693l-8.533-25.6c-8.96-26.453-21.76-65.707-90.88-65.707h-80.213c-33.707 0-66.133 14.080-88.747 38.827-22.187 24.32-32.853 56.747-29.867 89.173l23.893 259.84c6.4 70.4 25.173 145.493 162.133 145.493h544.427c136.96 0 155.307-75.093 162.133-145.493l23.893-259.84c2.987-32.427-7.68-64.853-29.867-89.173-22.613-24.747-55.040-38.827-88.747-38.827zM402.756 181.333h218.453c77.653 0 96-34.56 111.36-79.787l8.96-26.453c7.253-21.76 7.253-22.187 30.293-22.187h80.213c15.787 0 30.72 6.4 41.387 17.92 10.24 11.093 14.933 25.173 13.653 40.107l-23.893 259.84c-5.547 57.6-12.373 87.467-98.133 87.467h-545.28c-86.187 0-93.013-29.867-98.133-87.467l-23.893-259.84c-1.28-14.933 3.413-29.013 13.653-40.107 10.24-11.52 25.6-17.92 41.387-17.92h80.213c23.040 0 23.040 0.427 30.293 21.76l8.533 26.027c10.667 34.133 26.453 80.64 110.933 80.64zM170.667 586.667h-42.667c-17.493 0-32 14.507-32 32s14.507 32 32 32h42.667c17.493 0 32-14.507 32-32s-14.507-32-32-32zM896 586.667h-42.667c-17.493 0-32 14.507-32 32s14.507 32 32 32h42.667c17.493 0 32-14.507 32-32s-14.507-32-32-32zM512 714.667c-17.493 0-32 14.507-32 32v85.333c0 17.493 14.507 32 32 32s32-14.507 32-32v-85.333c0-17.493-14.507-32-32-32zM576 714.667h-128c-17.493 0-32 14.507-32 32s14.507 32 32 32h128c17.493 0 32-14.507 32-32s-14.507-32-32-32zM384 288h-128c-17.493 0-32 14.507-32 32s14.507 32 32 32h128c17.493 0 32-14.507 32-32s-14.507-32-32-32zM768 288h-128c-17.493 0-32 14.507-32 32s14.507 32 32 32h128c17.493 0 32-14.507 32-32s-14.507-32-32-32z" />
<glyph unicode="&#xa;" glyph-name="card4" d="M938.667 565.333h-853.333c-17.493 0-32 14.507-32 32s14.507 32 32 32h853.333c17.493 0 32-14.507 32-32s-14.507-32-32-32zM341.333 224h-85.333c-17.493 0-32 14.507-32 32s14.507 32 32 32h85.333c17.493 0 32-14.507 32-32s-14.507-32-32-32zM618.667 224h-170.667c-17.493 0-32 14.507-32 32s14.507 32 32 32h170.667c17.493 0 32-14.507 32-32s-14.507-32-32-32zM749.227 53.333h-474.453c-169.813 0-221.44 51.2-221.44 219.307v350.72c0 168.107 51.627 219.307 221.44 219.307h474.027c169.813 0 221.44-51.2 221.44-219.307v-350.293c0.427-168.533-51.2-219.733-221.013-219.733zM274.773 778.667c-133.973 0-157.44-23.040-157.44-155.307v-350.293c0-132.267 23.467-155.307 157.44-155.307h474.027c133.973 0 157.44 23.040 157.44 155.307v350.293c0 132.267-23.467 155.307-157.44 155.307h-474.027z" />
<glyph unicode="&#xb;" glyph-name="card-add4" d="M576 565.333h-490.667c-17.493 0-32 14.507-32 32s14.507 32 32 32h490.667c17.493 0 32-14.507 32-32s-14.507-32-32-32zM341.333 224h-85.333c-17.493 0-32 14.507-32 32s14.507 32 32 32h85.333c17.493 0 32-14.507 32-32s-14.507-32-32-32zM618.667 224h-170.667c-17.493 0-32 14.507-32 32s14.507 32 32 32h170.667c17.493 0 32-14.507 32-32s-14.507-32-32-32zM749.227 53.333h-474.453c-169.813 0-221.44 51.2-221.44 219.307v350.72c0 168.107 51.627 219.307 221.44 219.307h301.227c17.493 0 32-14.507 32-32s-14.507-32-32-32h-301.227c-133.973 0-157.44-23.040-157.44-155.307v-350.293c0-132.267 23.467-155.307 157.44-155.307h474.027c133.973 0 157.44 23.040 157.44 155.307v174.080c0 17.493 14.507 32 32 32s32-14.507 32-32v-174.080c0.427-168.533-51.2-219.733-221.013-219.733zM938.667 661.333h-234.667c-17.493 0-32 14.507-32 32s14.507 32 32 32h234.667c17.493 0 32-14.507 32-32s-14.507-32-32-32zM821.333 544c-17.493 0-32 14.507-32 32v234.667c0 17.493 14.507 32 32 32s32-14.507 32-32v-234.667c0-17.493-14.507-32-32-32z" />
<glyph unicode="&#xc;" glyph-name="card-coin4" d="M512 200.102h-426.667c-17.493 0-32 14.507-32 32s14.507 32 32 32h426.667c17.493 0 32-14.507 32-32 0-17.92-14.507-32-32-32zM417.271-10.667h-236.802c-93.44 0-126.719 32.853-126.719 125.867v174.933c0 93.013 33.279 125.867 126.719 125.867h236.802c93.44 0 126.72-32.853 126.72-125.867v-175.36c0-92.587-33.28-125.44-126.72-125.44zM180.042 352c-58.027 0-62.719-4.693-62.719-61.867v-175.36c0-57.173 4.692-61.867 62.719-61.867h236.802c58.028 0 62.717 4.693 62.717 61.867v175.36c0 57.173-4.689 61.867-62.717 61.867h-236.802zM640.009-10.667c-11.52 0-22.187 6.4-27.733 16.213-5.547 10.24-5.547 22.187 0.427 32.427l44.8 74.667c8.96 14.933 28.587 20.053 43.947 11.093s20.053-28.587 11.093-43.947l-11.52-19.2c117.76 27.733 206.080 133.547 206.080 259.84 0 17.493 14.507 32 32 32s32-14.507 32-32c-0.427-182.613-148.907-331.093-331.093-331.093zM85.333 544c-17.493 0-32 14.507-32 32 0 182.187 148.48 330.667 330.667 330.667 11.52 0 22.188-6.4 27.734-16.213 5.547-10.24 5.546-22.187-0.427-32.427l-44.799-74.667c-8.96-14.933-28.588-20.053-43.948-11.093s-20.054 28.587-11.094 43.947l11.521 19.2c-117.76-27.733-206.081-133.547-206.081-259.84 0.427-17.067-14.080-31.573-31.573-31.573zM789.333 458.667c-123.307 0-224 100.267-224 224s100.267 224 224 224c123.733 0 224-100.267 224-224s-100.693-224-224-224zM789.333 842.667c-88.32 0-160-71.68-160-160s71.68-160 160-160c88.32 0 160 71.68 160 160s-71.68 160-160 160z" />
<glyph unicode="&#xd;" glyph-name="card-edit4" d="M490.667 565.333h-405.333c-17.493 0-32 14.507-32 32s14.507 32 32 32h405.333c17.493 0 32-14.507 32-32s-14.507-32-32-32zM341.333 224h-85.333c-17.493 0-32 14.507-32 32s14.507 32 32 32h85.333c17.493 0 32-14.507 32-32s-14.507-32-32-32zM618.667 224h-170.667c-17.493 0-32 14.507-32 32s14.507 32 32 32h170.667c17.493 0 32-14.507 32-32s-14.507-32-32-32zM749.227 53.333h-474.453c-169.813 0-221.44 51.2-221.44 219.307v350.72c0 168.107 51.627 219.307 221.44 219.307h343.893c17.493 0 32-14.507 32-32s-14.507-32-32-32h-343.893c-133.973 0-157.44-23.040-157.44-155.307v-350.293c0-132.267 23.467-155.307 157.44-155.307h474.027c133.973 0 157.44 23.040 157.44 155.307v174.080c0 17.493 14.507 32 32 32s32-14.507 32-32v-174.080c0.427-168.533-51.2-219.733-221.013-219.733zM662.161 471.889c-16.64 0-32.427 5.973-43.52 17.493-13.653 13.653-19.627 33.28-16.64 53.762l8.533 60.587c2.133 15.36 11.52 33.707 22.187 44.373l158.293 158.293c62.72 62.72 117.333 26.88 144.64 0 26.88-26.88 62.72-81.493 0-144.64l-158.293-158.295c-11.093-11.093-29.44-20.053-44.373-22.187l-60.587-8.533c-3.413-0.427-6.827-0.853-10.24-0.853zM863.121 777.385c-8.533 0-16.213-5.973-26.88-16.213l-157.867-158.293c-1.28-1.707-3.84-6.4-4.267-8.533l-8.533-57.6 58.027 8.107c2.133 0.427 6.827 2.987 8.533 4.267l158.293 158.293c20.053 20.053 23.040 31.147 0 53.76-11.093 11.093-19.2 16.213-27.307 16.213zM890.462 629.757c-2.987 0-5.973 0.427-8.533 1.28-58.453 16.64-104.96 62.72-121.173 121.173-4.693 17.067 5.12 34.56 22.187 39.68 17.067 4.693 34.56-5.12 39.68-22.187 10.667-37.12 40.107-66.56 77.227-77.227 17.067-4.693 26.88-22.613 22.187-39.253-4.693-14.080-17.493-23.467-31.573-23.467z" />
<glyph unicode="&#xe;" glyph-name="card-pos4" d="M167.643 250.449c-8.107 0-16.213 2.987-22.613 9.387-12.373 12.373-12.373 32.853 0 45.227l509.865 509.866c12.373 12.373 32.853 12.373 45.227 0s12.373-32.853 0-45.227l-509.865-510.292c-5.973-5.973-14.507-8.96-22.613-8.96zM473.562 148.053c-8.107 0-16.213 2.987-22.613 9.387-12.373 12.373-12.373 32.853 0 45.227l51.2 51.2c12.373 12.373 32.853 12.373 45.227 0s12.373-32.853 0-45.227l-51.2-51.2c-5.973-5.973-14.080-9.387-22.613-9.387zM588.395 262.822c-8.107 0-16.213 2.987-22.613 9.387-12.373 12.373-12.373 32.853 0 45.227l101.973 101.973c12.373 12.373 32.853 12.373 45.227 0s12.373-32.853 0-45.227l-101.973-101.973c-5.973-5.973-14.507-9.387-22.613-9.387zM473.638-10.662c-41.813 0-83.627 25.6-134.4 76.373l-209.493 209.493c-101.973 101.973-101.547 167.68 1.28 270.506l283.307 283.307c102.827 102.826 168.534 103.253 270.507 1.28l209.493-209.493c101.973-101.973 101.547-167.68-1.28-270.506l-283.307-283.307c-51.627-51.627-93.867-77.653-136.107-77.653zM550.438 842.671c-22.187 0-50.347-18.347-90.88-58.88l-283.307-283.306c-40.533-40.533-58.88-68.693-58.88-90.453 0-22.187 17.067-49.067 57.6-89.6l209.493-209.493c40.533-40.533 66.987-57.6 89.174-57.6 0 0 0 0 0.427 0 22.187 0 49.92 18.347 90.453 58.88l283.307 283.307c40.533 40.533 58.88 68.693 58.88 90.453 0 22.187-17.067 49.066-57.6 89.6l-209.493 209.493c-40.107 40.533-66.987 57.6-89.173 57.6zM938.667-10.667h-853.333c-17.493 0-32 14.507-32 32s14.507 32 32 32h853.333c17.493 0 32-14.507 32-32s-14.507-32-32-32z" />
<glyph unicode="&#xf;" glyph-name="card-receive4" d="M618.667 565.333h-533.333c-17.493 0-32 14.507-32 32s14.507 32 32 32h533.333c17.493 0 32-14.507 32-32s-14.507-32-32-32zM341.333 224h-85.333c-17.493 0-32 14.507-32 32s14.507 32 32 32h85.333c17.493 0 32-14.507 32-32s-14.507-32-32-32zM618.667 224h-170.667c-17.493 0-32 14.507-32 32s14.507 32 32 32h170.667c17.493 0 32-14.507 32-32s-14.507-32-32-32zM749.227 53.333h-474.453c-169.813 0-221.44 51.2-221.44 219.307v350.72c0 168.107 51.627 219.307 221.44 219.307h343.893c17.493 0 32-14.507 32-32s-14.507-32-32-32h-343.893c-133.973 0-157.44-23.040-157.44-155.307v-350.293c0-132.267 23.467-155.307 157.44-155.307h474.027c133.973 0 157.44 23.040 157.44 155.307v88.747c0 17.493 14.507 32 32 32s32-14.507 32-32v-88.747c0.427-168.533-51.2-219.733-221.013-219.733zM853.333 522.667c-4.267 0-8.107 0.853-12.373 2.56-11.947 5.12-19.627 16.64-19.627 29.44v256c0 17.493 14.507 32 32 32s32-14.507 32-32v-178.773l30.72 30.72c12.373 12.373 32.853 12.373 45.227 0s12.373-32.853 0-45.227l-85.333-85.333c-5.973-5.973-14.080-9.387-22.613-9.387zM853.312 522.671c-8.107 0-16.213 2.987-22.613 9.387l-85.333 85.332c-12.373 12.373-12.373 32.853 0 45.227s32.853 12.373 45.227 0l85.333-85.333c12.373-12.373 12.373-32.853 0-45.225-6.4-6.4-14.507-9.387-22.613-9.387z" />
<glyph unicode="&#x10;" glyph-name="card-remove4" d="M934.417 500.041h-853.334c-17.493 0-32 14.507-32 32 0 17.495 14.507 32.001 32 32.001h853.334c17.493 0 32-14.507 32-32.001 0-17.493-14.080-32-32-32zM488.977 52.053h-218.029c-169.813 0-221.865 51.2-221.865 219.307v350.718c0 134.4 28.586 209.067 180.906 218.027 13.227 0.427 26.452 0.853 40.958 0.853h474.029c169.813 0 221.862-51.2 221.862-219.307v-188.158c0-17.493-14.507-32-32-32s-32 14.507-32 32v188.158c0 131.84-23.462 155.307-157.862 155.307h-474.029c-13.653 0-26.025-0.427-37.971-0.853-92.587-5.547-119.893-26.453-119.893-154.453v-350.718c0-131.84 23.465-155.307 157.865-155.307h218.029c17.493 0 32-14.507 32-32s-14.507-31.573-32-31.573zM763.75-11.959c-111.787 0-202.667 90.88-202.667 202.667s90.88 202.667 202.667 202.667c111.787 0 202.667-90.88 202.667-202.667s-90.88-202.667-202.667-202.667zM763.75 329.374c-76.373 0-138.667-62.293-138.667-138.667s62.293-138.667 138.667-138.667c76.373 0 138.667 62.293 138.667 138.667s-62.293 138.667-138.667 138.667zM809.417 110.933c-8.107 0-16.209 2.987-22.609 9.387l-90.027 90.027c-12.373 12.373-12.373 32.853 0 45.227s32.853 12.373 45.227 0l90.027-90.027c12.373-12.373 12.373-32.853 0-45.227-5.973-5.973-14.511-9.387-22.618-9.387zM718.063 110.080c-8.107 0-16.218 2.987-22.618 9.387-12.373 12.373-12.373 32.853 0 45.227l90.027 90.027c12.373 12.373 32.853 12.373 45.227 0s12.373-32.853 0-45.227l-90.027-90.027c-5.973-6.4-14.076-9.387-22.609-9.387zM422.417 244.041h-170.667c-17.493 0-32 14.507-32 32s14.507 32 32 32h170.667c17.494 0 32-14.507 32-32s-14.080-32-32-32z" />
<glyph unicode="&#x11;" glyph-name="card-remove-14" d="M576 565.333h-490.667c-17.493 0-32 14.507-32 32s14.507 32 32 32h490.667c17.493 0 32-14.507 32-32s-14.507-32-32-32zM341.333 224h-85.333c-17.493 0-32 14.507-32 32s14.507 32 32 32h85.333c17.493 0 32-14.507 32-32s-14.507-32-32-32zM618.667 224h-170.667c-17.493 0-32 14.507-32 32s14.507 32 32 32h170.667c17.493 0 32-14.507 32-32s-14.507-32-32-32zM749.227 53.333h-474.453c-169.813 0-221.44 51.2-221.44 219.307v350.72c0 168.107 51.627 219.307 221.44 219.307h301.227c17.493 0 32-14.507 32-32s-14.507-32-32-32h-301.227c-133.973 0-157.44-23.040-157.44-155.307v-350.293c0-132.267 23.467-155.307 157.44-155.307h474.027c133.973 0 157.44 23.040 157.44 155.307v174.080c0 17.493 14.507 32 32 32s32-14.507 32-32v-174.080c0.427-168.533-51.2-219.733-221.013-219.733zM738.56 578.55c-8.107 0-16.213 2.987-22.613 9.387-12.373 12.373-12.373 32.853 0 45.227l165.973 165.973c12.373 12.373 32.853 12.373 45.227 0s12.373-32.853 0-45.227l-165.973-165.973c-6.4-6.4-14.507-9.387-22.613-9.387zM904.115 578.55c-8.107 0-16.213 2.987-22.613 9.387l-165.973 165.973c-12.373 12.373-12.373 32.853 0 45.227s32.853 12.373 45.227 0l165.973-165.973c12.373-12.373 12.373-32.853 0-45.227-5.973-6.4-14.080-9.387-22.613-9.387z" />
<glyph unicode="&#x12;" glyph-name="cards4" d="M810.667 389.978h-725.333c-17.493 0-32 14.507-32 32s14.507 32 32 32h725.333c17.493 0 32-14.507 32-32s-14.507-32-32-32zM649.387 32.009h-402.772c-146.347 0-193.281 46.507-193.281 191.147v298.24c0 114.773 26.028 182.613 158.294 190.293 11.093 0.427 22.614 0.854 34.987 0.854h402.772c146.347 0 193.28-46.507 193.28-191.147v-305.067c-1.707-139.52-48.64-184.32-193.28-184.32zM246.615 648.542c-11.52 0-22.187-0.427-32-0.854-76.373-4.693-97.281-20.906-97.281-126.293v-298.24c0-109.227 17.921-127.147 129.281-127.147h402.772c110.080 0 128 17.067 129.28 120.747v304.64c0 109.227-17.92 127.147-129.28 127.147h-402.772zM810.667 184.32c-8.107 0-16.213 2.987-21.76 8.533-6.4 5.973-10.24 14.507-10.24 23.467v305.067c0 109.227-17.92 127.147-129.28 127.147h-402.772c-11.52 0-22.187-0.427-32-0.853-8.533-0.427-17.069 2.987-23.469 8.96s-9.812 14.507-9.812 23.467c1.707 139.093 48.641 183.893 193.281 183.893h402.772c146.347 0 193.28-46.507 193.28-191.147v-298.24c0-114.773-26.027-182.613-158.293-190.293-0.427 0-1.28 0-1.707 0zM246.615 712.533h402.772c146.347 0 193.28-46.507 193.28-191.147v-269.653c49.493 8.96 64 34.56 64 122.88v298.24c0 109.227-17.92 127.147-129.28 127.147h-402.772c-97.28 0-122.453-13.227-128-87.467zM296.972 168.102h-73.388c-17.493 0-32 14.507-32 32s14.507 32 32 32h73.388c17.493 0 32-14.507 32-32s-14.080-32-32-32zM535.441 168.102h-146.774c-17.493 0-32 14.507-32 32s14.507 32 32 32h146.774c17.493 0 32-14.507 32-32s-14.080-32-32-32z" />
<glyph unicode="&#x13;" glyph-name="card-send4" d="M618.667 565.333h-533.333c-17.493 0-32 14.507-32 32s14.507 32 32 32h533.333c17.493 0 32-14.507 32-32s-14.507-32-32-32zM341.333 224h-85.333c-17.493 0-32 14.507-32 32s14.507 32 32 32h85.333c17.493 0 32-14.507 32-32s-14.507-32-32-32zM618.667 224h-170.667c-17.493 0-32 14.507-32 32s14.507 32 32 32h170.667c17.493 0 32-14.507 32-32s-14.507-32-32-32zM749.227 53.333h-474.453c-169.813 0-221.44 51.2-221.44 219.307v350.72c0 168.107 51.627 219.307 221.44 219.307h343.893c17.493 0 32-14.507 32-32s-14.507-32-32-32h-343.893c-133.973 0-157.44-23.040-157.44-155.307v-350.293c0-132.267 23.467-155.307 157.44-155.307h474.027c133.973 0 157.44 23.040 157.44 155.307v88.747c0 17.493 14.507 32 32 32s32-14.507 32-32v-88.747c0.427-168.533-51.2-219.733-221.013-219.733zM853.333 522.671c-17.493 0-32 14.505-32 31.998v256c0 12.8 7.68 24.747 19.627 29.44s25.6 2.133 34.987-6.827l85.333-85.333c12.373-12.373 12.373-32.853 0-45.227s-32.853-12.373-45.227 0l-30.72 30.72v-178.773c0-17.493-14.507-31.998-32-31.998zM767.979 693.336c-8.107 0-16.213 2.987-22.613 9.387-12.373 12.373-12.373 32.853 0 45.227l85.333 85.333c12.373 12.373 32.853 12.373 45.227 0s12.373-32.853 0-45.227l-85.333-85.333c-6.4-6.4-14.507-9.387-22.613-9.387z" />
<glyph unicode="&#x14;" glyph-name="card-slash4" d="M650.24 565.333h-564.907c-17.493 0-32 14.507-32 32s14.507 32 32 32h564.907c17.493 0 32-14.507 32-32s-14.507-32-32-32zM311.040 224h-55.040c-17.493 0-32 14.507-32 32s14.507 32 32 32h55.040c17.493 0 32-14.507 32-32s-14.080-32-32-32zM618.667 224h-149.333c-17.493 0-32 14.507-32 32s14.507 32 32 32h149.333c17.493 0 32-14.507 32-32s-14.507-32-32-32zM749.248 53.329h-408.748c-17.493 0-32 14.507-32 32s14.507 32 32 32h408.748c133.973 0 157.44 23.040 157.44 155.307v393.385c0 17.493 14.507 32 32 32s32-14.507 32-32v-392.958c0-168.533-51.627-219.733-221.44-219.733zM158.293 68.693c-3.84 0-8.107 0.853-11.947 2.133-77.227 30.72-93.013 102.827-93.013 201.813v350.72c0 168.107 51.627 219.307 221.44 219.307h474.027c48.64 0 84.48-3.84 112.64-12.373 17.067-5.12 26.453-22.613 21.76-39.68-5.12-17.067-23.040-26.453-39.68-21.76-22.187 6.4-52.053 9.387-94.72 9.387h-474.027c-133.973 0-157.44-23.040-157.44-155.307v-350.293c0-101.973 18.347-128.853 52.907-142.507 16.64-6.4 24.32-25.173 17.92-41.387-5.12-12.373-17.067-20.053-29.867-20.053zM85.31-10.662c-8.107 0-16.213 2.987-22.613 9.387-12.373 12.373-12.373 32.853 0 45.227l853.335 853.332c12.373 12.373 32.853 12.373 45.227 0s12.373-32.853 0-45.227l-853.335-853.332c-6.4-6.4-14.507-9.387-22.613-9.387z" />
<glyph unicode="&#x15;" glyph-name="card-tick4" d="M576 565.333h-490.667c-17.493 0-32 14.507-32 32s14.507 32 32 32h490.667c17.493 0 32-14.507 32-32s-14.507-32-32-32zM341.333 224h-85.333c-17.493 0-32 14.507-32 32s14.507 32 32 32h85.333c17.493 0 32-14.507 32-32s-14.507-32-32-32zM618.667 224h-170.667c-17.493 0-32 14.507-32 32s14.507 32 32 32h170.667c17.493 0 32-14.507 32-32s-14.507-32-32-32zM749.227 53.333h-474.453c-169.813 0-221.44 51.2-221.44 219.307v350.72c0 168.107 51.627 219.307 221.44 219.307h301.227c17.493 0 32-14.507 32-32s-14.507-32-32-32h-301.227c-133.973 0-157.44-23.040-157.44-155.307v-350.293c0-132.267 23.467-155.307 157.44-155.307h474.027c133.973 0 157.44 23.040 157.44 155.307v216.747c0 17.493 14.507 32 32 32s32-14.507 32-32v-216.747c0.427-168.533-51.2-219.733-221.013-219.733zM767.979 608.003c-8.107 0-16.213 2.987-22.613 9.387l-64 64c-12.373 12.373-12.373 32.853 0 45.227s32.853 12.373 45.227 0l41.387-41.387 148.053 148.053c12.373 12.373 32.853 12.373 45.227 0s12.373-32.853 0-45.227l-170.667-170.667c-6.4-6.4-14.507-9.387-22.613-9.387z" />
<glyph unicode="&#x16;" glyph-name="card-tick-14" d="M938.667 501.333h-853.333c-17.493 0-32 14.507-32 32s14.507 32 32 32h853.333c17.493 0 32-14.507 32-32s-14.507-32-32-32zM492.809 53.342h-218.025c-169.813 0-221.868 51.2-221.868 219.307v350.721c0 134.4 28.586 209.067 180.906 218.027 12.8 0.427 26.455 0.853 40.961 0.853h474.025c169.813 0 221.867-51.2 221.867-219.307v-188.161c0-17.493-14.507-32-32-32s-32 14.507-32 32v188.161c0 131.84-23.467 155.307-157.867 155.307h-474.025c-13.653 0-26.028-0.427-37.974-0.853-92.587-5.547-119.893-26.453-119.893-154.453v-350.721c0-131.84 23.468-155.307 157.868-155.307h218.025c17.493 0 32-14.507 32-32s-14.080-31.573-32-31.573zM426.667 245.333h-170.667c-17.493 0-32 14.507-32 32s14.507 32 32 32h170.667c17.493 0 32-14.507 32-32s-14.507-32-32-32zM768-10.667c-70.827 0-137.387 37.547-173.227 98.56-19.2 30.72-29.44 66.987-29.44 104.107 0 111.787 90.88 202.667 202.667 202.667s202.667-90.88 202.667-202.667c0-37.12-10.24-73.387-29.44-104.533-35.84-60.587-102.4-98.133-173.227-98.133zM768 330.667c-76.373 0-138.667-62.293-138.667-138.667 0-25.173 6.827-49.92 20.053-71.253 24.747-41.813 70.4-67.413 118.613-67.413s93.867 25.6 118.613 66.987c13.227 21.76 20.053 46.080 20.053 71.68 0 76.373-62.293 138.667-138.667 138.667zM743.633 117.756c-8.107 0-16.209 2.987-22.609 9.387l-42.244 42.24c-12.373 12.373-12.373 32.853 0 45.227s32.853 12.373 45.227 0l20.48-20.48 68.267 63.147c12.8 11.947 33.28 11.093 45.227-1.707s11.093-33.28-1.707-45.227l-90.88-84.049c-6.4-5.547-14.080-8.538-21.76-8.538z" />
<glyph unicode="&#x17;" glyph-name="category4" d="M298.667 501.333h-85.333c-103.253 0-160 56.747-160 160v85.333c0 103.253 56.747 160 160 160h85.333c103.253 0 160-56.747 160-160v-85.333c0-103.253-56.747-160-160-160zM213.333 842.667c-67.413 0-96-28.587-96-96v-85.333c0-67.413 28.587-96 96-96h85.333c67.413 0 96 28.587 96 96v85.333c0 67.413-28.587 96-96 96h-85.333zM810.667 501.333h-85.333c-103.253 0-160 56.747-160 160v85.333c0 103.253 56.747 160 160 160h85.333c103.253 0 160-56.747 160-160v-85.333c0-103.253-56.747-160-160-160zM725.333 842.667c-67.413 0-96-28.587-96-96v-85.333c0-67.413 28.587-96 96-96h85.333c67.413 0 96 28.587 96 96v85.333c0 67.413-28.587 96-96 96h-85.333zM810.667-10.667h-85.333c-103.253 0-160 56.747-160 160v85.333c0 103.253 56.747 160 160 160h85.333c103.253 0 160-56.747 160-160v-85.333c0-103.253-56.747-160-160-160zM725.333 330.667c-67.413 0-96-28.587-96-96v-85.333c0-67.413 28.587-96 96-96h85.333c67.413 0 96 28.587 96 96v85.333c0 67.413-28.587 96-96 96h-85.333zM298.667-10.667h-85.333c-103.253 0-160 56.747-160 160v85.333c0 103.253 56.747 160 160 160h85.333c103.253 0 160-56.747 160-160v-85.333c0-103.253-56.747-160-160-160zM213.333 330.667c-67.413 0-96-28.587-96-96v-85.333c0-67.413 28.587-96 96-96h85.333c67.413 0 96 28.587 96 96v85.333c0 67.413-28.587 96-96 96h-85.333z" />
<glyph unicode="&#x18;" glyph-name="category-24" d="M810.667 501.333h-85.333c-103.253 0-160 56.747-160 160v85.333c0 103.253 56.747 160 160 160h85.333c103.253 0 160-56.747 160-160v-85.333c0-103.253-56.747-160-160-160zM725.333 842.667c-67.413 0-96-28.587-96-96v-85.333c0-67.413 28.587-96 96-96h85.333c67.413 0 96 28.587 96 96v85.333c0 67.413-28.587 96-96 96h-85.333zM298.667-10.667h-85.333c-103.253 0-160 56.747-160 160v85.333c0 103.253 56.747 160 160 160h85.333c103.253 0 160-56.747 160-160v-85.333c0-103.253-56.747-160-160-160zM213.333 330.667c-67.413 0-96-28.587-96-96v-85.333c0-67.413 28.587-96 96-96h85.333c67.413 0 96 28.587 96 96v85.333c0 67.413-28.587 96-96 96h-85.333zM256 501.333c-111.787 0-202.667 90.88-202.667 202.667s90.88 202.667 202.667 202.667c111.787 0 202.667-90.88 202.667-202.667s-90.88-202.667-202.667-202.667zM256 842.667c-76.373 0-138.667-62.293-138.667-138.667s62.293-138.667 138.667-138.667c76.373 0 138.667 62.293 138.667 138.667s-62.293 138.667-138.667 138.667zM768-10.667c-111.787 0-202.667 90.88-202.667 202.667s90.88 202.667 202.667 202.667c111.787 0 202.667-90.88 202.667-202.667s-90.88-202.667-202.667-202.667zM768 330.667c-76.373 0-138.667-62.293-138.667-138.667s62.293-138.667 138.667-138.667c76.373 0 138.667 62.293 138.667 138.667s-62.293 138.667-138.667 138.667z" />
<glyph unicode="&#x19;" glyph-name="cd4" d="M512-10.667c-253.013 0-458.667 205.653-458.667 458.667s205.653 458.667 458.667 458.667c253.013 0 458.667-205.653 458.667-458.667s-205.653-458.667-458.667-458.667zM512 842.667c-217.6 0-394.667-177.067-394.667-394.667s177.067-394.667 394.667-394.667c217.6 0 394.667 177.067 394.667 394.667s-177.067 394.667-394.667 394.667zM512 330.667c-64.853 0-117.333 52.48-117.333 117.333s52.48 117.333 117.333 117.333c64.853 0 117.333-52.48 117.333-117.333s-52.48-117.333-117.333-117.333zM512 501.333c-29.44 0-53.333-23.893-53.333-53.333s23.893-53.333 53.333-53.333c29.44 0 53.333 23.893 53.333 53.333s-23.893 53.333-53.333 53.333z" />
<glyph unicode="&#x1a;" glyph-name="chart4" d="M298.667 333.227c-17.493 0-32 14.507-32 32v136.96c0 17.493 14.507 32.001 32 32.001s32-14.508 32-32.001v-136.96c0-17.92-14.507-32-32-32zM512 258.987c-17.493 0-32 14.507-32 32v285.013c0 17.493 14.507 32 32 32s32-14.507 32-32v-285.013c0-17.493-14.507-32-32-32zM725.333 333.227c-17.493 0-32 14.507-32 32v136.96c0 17.493 14.507 32.001 32 32.001s32-14.508 32-32.001v-136.96c0-17.92-14.507-32-32-32zM640-10.667h-256c-231.68 0-330.667 98.987-330.667 330.667v256c0 231.68 98.987 330.667 330.667 330.667h256c231.68 0 330.667-98.987 330.667-330.667v-256c0-231.68-98.987-330.667-330.667-330.667zM384 842.667c-196.693 0-266.667-69.973-266.667-266.667v-256c0-196.693 69.973-266.667 266.667-266.667h256c196.693 0 266.667 69.973 266.667 266.667v256c0 196.693-69.973 266.667-266.667 266.667h-256z" />
<glyph unicode="&#x1b;" glyph-name="chart-14" d="M938.667-10.667h-853.333c-17.493 0-32 14.507-32 32s14.507 32 32 32h853.333c17.493 0 32-14.507 32-32s-14.507-32-32-32zM608-10.667h-192c-17.493 0-32 14.507-32 32v768c0 73.387 40.533 117.333 108.8 117.333h38.4c68.267 0 108.8-43.947 108.8-117.333v-768c0-17.493-14.507-32-32-32zM448 53.333h128v736c0 49.067-23.040 53.333-44.8 53.333h-38.4c-21.76 0-44.8-4.267-44.8-53.333v-736zM298.667-10.667h-170.667c-17.493 0-32 14.507-32 32v512c0 73.387 37.547 117.333 100.267 117.333h34.133c62.72 0 100.267-43.947 100.267-117.333v-512c0-17.493-14.507-32-32-32zM160 53.333h106.667v480c0 53.333-23.467 53.333-36.267 53.333h-34.133c-12.8 0-36.267 0-36.267-53.333v-480zM896-10.667h-170.667c-17.493 0-32 14.507-32 32v298.667c0 73.387 37.547 117.333 100.267 117.333h34.133c62.72 0 100.267-43.947 100.267-117.333v-298.667c0-17.493-14.507-32-32-32zM757.333 53.333h106.667v266.667c0 53.333-23.467 53.333-36.267 53.333h-34.133c-12.8 0-36.267 0-36.267-53.333v-266.667z" />
<glyph unicode="&#x1c;" glyph-name="chart-25" d="M640-10.667h-256c-231.68 0-330.667 98.987-330.667 330.667v256c0 231.68 98.987 330.667 330.667 330.667h256c231.68 0 330.667-98.987 330.667-330.667v-256c0-231.68-98.987-330.667-330.667-330.667zM384 842.667c-196.693 0-266.667-69.973-266.667-266.667v-256c0-196.693 69.973-266.667 266.667-266.667h256c196.693 0 266.667 69.973 266.667 266.667v256c0 196.693-69.973 266.667-266.667 266.667h-256zM661.333 138.667c-64.853 0-117.333 52.48-117.333 117.333v384c0 64.853 52.48 117.333 117.333 117.333s117.333-52.48 117.333-117.333v-384c0-64.853-52.48-117.333-117.333-117.333zM661.333 693.333c-29.44 0-53.333-23.893-53.333-53.333v-384c0-29.44 23.893-53.333 53.333-53.333s53.333 23.893 53.333 53.333v384c0 29.44-23.893 53.333-53.333 53.333zM362.667 138.667c-64.853 0-117.333 52.48-117.333 117.333v149.333c0 64.853 52.48 117.333 117.333 117.333s117.333-52.48 117.333-117.333v-149.333c0-64.853-52.48-117.333-117.333-117.333zM362.667 458.667c-29.44 0-53.333-23.893-53.333-53.333v-149.333c0-29.44 23.893-53.333 53.333-53.333s53.333 23.893 53.333 53.333v149.333c0 29.44-23.893 53.333-53.333 53.333z" />
<glyph unicode="&#x1d;" glyph-name="chart-34" d="M512-10.667c-253.013 0-458.667 205.653-458.667 458.667 0 100.693 32 196.267 92.587 276.48 10.667 14.080 30.72 16.64 44.8 5.973s17.067-30.72 6.4-44.8c-52.053-68.693-79.787-151.040-79.787-237.653 0-217.6 177.067-394.667 394.667-394.667s394.667 177.067 394.667 394.667c0 217.6-177.067 394.667-394.667 394.667-17.493 0-32 14.507-32 32s14.507 32 32 32c253.013 0 458.667-205.653 458.667-458.667s-205.653-458.667-458.667-458.667zM512 117.333c-182.187 0-330.667 148.48-330.667 330.667 0 17.493 14.507 32 32 32s32-14.507 32-32c0-147.2 119.467-266.667 266.667-266.667s266.667 119.467 266.667 266.667c0 147.2-119.467 266.667-266.667 266.667-17.493 0-32 14.507-32 32s14.507 32 32 32c182.187 0 330.667-148.48 330.667-330.667s-148.48-330.667-330.667-330.667zM512 245.333c-17.493 0-32 14.507-32 32s14.507 32 32 32c76.373 0 138.667 62.293 138.667 138.667s-62.293 138.667-138.667 138.667c-17.493 0-32 14.507-32 32s14.507 32 32 32c111.787 0 202.667-90.88 202.667-202.667s-90.88-202.667-202.667-202.667z" />
<glyph unicode="&#x1e;" glyph-name="chart-214" d="M896-10.667h-768c-17.493 0-32 14.507-32 32s14.507 32 32 32h768c17.493 0 32-14.507 32-32s-14.507-32-32-32zM238.932 117.338h-68.266c-40.96 0-74.667 33.707-74.667 74.667v367.788c0 40.96 33.707 74.667 74.667 74.667h68.266c40.96 0 74.667-33.707 74.667-74.667v-367.788c0-40.96-33.707-74.667-74.667-74.667zM170.667 570.886c-5.973 0-10.667-4.693-10.667-10.667v-368.215c0-5.973 4.693-10.667 10.667-10.667h68.266c5.973 0 10.667 4.693 10.667 10.667v367.788c0 5.973-4.693 10.667-10.667 10.667h-68.266v0.427zM546.142 117.338h-68.267c-40.96 0-74.667 33.707-74.667 74.667v503.892c0 40.96 33.707 74.667 74.667 74.667h68.267c40.96 0 74.667-33.707 74.667-74.667v-503.892c0-40.96-33.707-74.667-74.667-74.667zM477.875 706.563c-5.973 0-10.667-4.693-10.667-10.667v-503.892c0-5.973 4.693-10.667 10.667-10.667h68.267c5.973 0 10.667 4.693 10.667 10.667v503.892c0 5.973-4.693 10.667-10.667 10.667h-68.267zM853.35 117.333h-68.267c-40.96 0-74.667 33.707-74.667 74.667v640c0 40.96 33.707 74.667 74.667 74.667h68.267c40.96 0 74.667-33.707 74.667-74.667v-640c0-40.96-33.707-74.667-74.667-74.667zM785.084 842.667c-5.973 0-10.667-4.693-10.667-10.667v-640c0-5.973 4.693-10.667 10.667-10.667h68.267c5.973 0 10.667 4.693 10.667 10.667v640c0 5.973-4.693 10.667-10.667 10.667h-68.267z" />
<glyph unicode="&#x1f;" glyph-name="chart-fail2" d="M735.142 41.818c-8.107 0-16.213 2.987-22.613 9.387-12.373 12.373-12.373 32.853 0 45.227l151.040 151.040c12.373 12.373 32.853 12.373 45.227 0s12.373-32.853 0-45.227l-151.040-151.040c-5.973-5.973-14.507-9.387-22.613-9.387zM886.182 41.818c-8.107 0-16.213 2.987-22.613 9.387l-151.040 151.040c-12.373 12.373-12.373 32.853 0 45.227s32.853 12.373 45.227 0l151.040-151.040c12.373-12.373 12.373-32.853 0-45.227-6.4-5.973-14.507-9.387-22.613-9.387zM298.667 352c-17.493 0-32 14.507-32 32v128c0 17.493 14.507 32 32 32s32-14.507 32-32v-128c0-17.493-14.507-32-32-32zM512 352c-17.493 0-32 14.507-32 32v128c0 17.493 14.507 32 32 32s32-14.507 32-32v-128c0-17.493-14.507-32-32-32zM725.333 352c-17.493 0-32 14.507-32 32v128c0 17.493 14.507 32 32 32s32-14.507 32-32v-128c0-17.493-14.507-32-32-32zM554.667-10.667h-170.667c-231.68 0-330.667 98.987-330.667 330.667v256c0 231.68 98.987 330.667 330.667 330.667h256c231.68 0 330.667-98.987 330.667-330.667v-170.667c0-17.493-14.507-32-32-32s-32 14.507-32 32v170.667c0 196.693-69.973 266.667-266.667 266.667h-256c-196.693 0-266.667-69.973-266.667-266.667v-256c0-196.693 69.973-266.667 266.667-266.667h170.667c17.493 0 32-14.507 32-32s-14.507-32-32-32z" />
<glyph unicode="&#x20;" glyph-name="chart-square4" d="M431.373 185.596h-161.706c-17.493 0-32 14.507-32 32v218.449c0 44.373 36.266 80.644 80.64 80.644h113.067c17.493 0 32-14.507 32-32v-266.667c0-17.92-14.507-32.427-32-32.427zM301.667 249.596h97.706v202.667h-81.066c-8.96 0-16.64-7.253-16.64-16.64v-186.027zM592.623 185.596h-161.707c-17.493 0-32 14.507-32 32v412.16c0 44.373 36.266 80.64 80.64 80.64h64.853c44.373 0 80.64-36.267 80.64-80.64v-412.16c-0.427-17.493-14.507-32-32.427-32zM463.343 249.596h97.707v380.16c0 8.96-7.253 16.64-16.64 16.64h-64.853c-8.96 0-16.64-7.254-16.64-16.64v-380.16h0.427zM754.372 185.596h-161.707c-17.493 0-32 14.507-32 32v194.133c0 17.493 14.507 32 32 32h113.067c44.373 0 80.64-36.267 80.64-80.64v-145.493c0-17.493-14.080-32-32-32zM624.666 249.596h97.707v113.493c0 8.96-7.253 16.64-16.64 16.64h-81.067v-130.133zM640-10.667h-256c-231.68 0-330.667 98.987-330.667 330.667v256c0 231.68 98.987 330.667 330.667 330.667h256c231.68 0 330.667-98.987 330.667-330.667v-256c0-231.68-98.987-330.667-330.667-330.667zM384 842.667c-196.693 0-266.667-69.973-266.667-266.667v-256c0-196.693 69.973-266.667 266.667-266.667h256c196.693 0 266.667 69.973 266.667 266.667v256c0 196.693-69.973 266.667-266.667 266.667h-256z" />
<glyph unicode="&#x21;" glyph-name="chart-success4" d="M298.667 333.227c-17.493 0-32 14.507-32 32v136.96c0 17.493 14.507 32.001 32 32.001s32-14.508 32-32.001v-136.96c0-17.92-14.507-32-32-32zM725.333 333.227c-17.493 0-32 14.507-32 32v136.96c0 17.493 14.507 32.001 32 32.001s32-14.508 32-32.001v-136.96c0-17.92-14.507-32-32-32zM554.667-10.667h-170.667c-231.68 0-330.667 98.987-330.667 330.667v256c0 231.68 98.987 330.667 330.667 330.667h256c231.68 0 330.667-98.987 330.667-330.667v-170.667c0-17.493-14.507-32-32-32s-32 14.507-32 32v170.667c0 196.693-69.973 266.667-266.667 266.667h-256c-196.693 0-266.667-69.973-266.667-266.667v-256c0-196.693 69.973-266.667 266.667-266.667h170.667c17.493 0 32-14.507 32-32s-14.507-32-32-32zM750.093 31.991c-8.533 0-16.64 3.413-22.613 9.387l-67.413 66.987c-12.373 12.373-12.8 32.853 0 45.227 12.373 12.373 32.853 12.8 45.227 0l43.093-42.667 123.733 144.64c11.52 13.653 31.573 14.933 45.227 3.413 13.227-11.52 14.933-31.573 3.413-45.227l-145.92-170.667c-5.973-6.827-14.080-10.667-23.040-11.093-0.853 0-1.28 0-1.707 0zM512 352c-17.493 0-32 14.507-32 32v128c0 17.493 14.507 32 32 32s32-14.507 32-32v-128c0-17.493-14.507-32-32-32z" />
<glyph unicode="&#x22;" glyph-name="check4" d="M470.187 96h-150.187c-32 0-55.467 1.28-75.52 4.267-142.080 15.787-169.813 100.267-169.813 241.067v213.333c0 140.8 28.16 225.707 171.093 241.493 18.773 2.56 42.24 3.84 74.24 3.84h147.627c17.493 0 32-14.507 32-32s-14.507-32-32-32h-147.627c-29.013 0-49.493-1.28-66.133-3.413-86.613-9.387-115.2-36.693-115.2-177.92v-213.333c0-141.227 28.587-168.107 113.92-177.92 17.92-2.56 38.4-3.413 67.413-3.413h150.187c17.493 0 32-14.507 32-32s-14.507-32-32-32zM703.979 96h-63.147c-17.493 0-32 14.507-32 32s14.507 32 32 32h63.147c29.013 0 49.493 1.28 66.133 3.413 86.613 9.387 115.2 36.693 115.2 177.92v213.333c0 141.227-28.587 168.107-113.92 177.92-17.92 2.56-38.4 3.413-67.413 3.413h-63.147c-17.493 0-32 14.507-32 32s14.507 32 32 32h63.147c32 0 55.467-1.28 75.52-4.267 142.080-15.787 169.813-100.267 169.813-241.067v-213.333c0-140.8-28.16-225.707-171.093-241.493-18.773-2.56-42.24-3.84-74.24-3.84zM640-10.667c-17.493 0-32 14.507-32 32v853.333c0 17.493 14.507 32 32 32s32-14.507 32-32v-853.333c0-17.493-14.507-32-32-32zM341.333 266.667c-17.493 0-32 14.507-32 32v298.667c0 17.493 14.507 32 32 32s32-14.507 32-32v-298.667c0-17.493-14.507-32-32-32z" />
<glyph unicode="&#x23;" glyph-name="chrome4" d="M512-10.667c-253.013 0-458.667 205.653-458.667 458.667s205.653 458.667 458.667 458.667c253.013 0 458.667-205.653 458.667-458.667s-205.653-458.667-458.667-458.667zM512 842.667c-217.6 0-394.667-177.067-394.667-394.667s177.067-394.667 394.667-394.667c217.6 0 394.667 177.067 394.667 394.667s-177.067 394.667-394.667 394.667zM512 245.333c-111.787 0-202.667 90.88-202.667 202.667s90.88 202.667 202.667 202.667c111.787 0 202.667-90.88 202.667-202.667s-90.88-202.667-202.667-202.667zM512 586.667c-76.373 0-138.667-62.293-138.667-138.667s62.293-138.667 138.667-138.667c76.373 0 138.667 62.293 138.667 138.667s-62.293 138.667-138.667 138.667zM903.245 586.669c-2.133 0-4.693 0.427-6.827 0.853-125.44 27.307-252.16 27.307-377.6 0-17.493-3.84-34.133 7.253-37.973 24.32-3.84 17.493 7.253 34.133 24.32 37.973 134.4 29.44 270.507 29.44 404.907 0 17.067-3.84 28.16-20.907 24.32-37.973-2.987-14.933-16.213-25.173-31.147-25.173zM364.364 330.662c-8.96 0-17.92 3.84-24.32 11.093-88.747 101.973-156.16 218.455-200.96 346.455l29.44 13.227 30.293 10.24 0.853-2.56c41.813-119.893 105.387-229.548 189.013-325.548 11.52-13.227 10.24-33.707-2.987-45.227-6.4-5.12-14.080-7.68-21.333-7.68zM464.205-8.107c-7.68 0-15.36 2.56-21.333 8.107-13.227 11.947-14.080 32-2.133 45.227 85.333 93.867 148.48 202.667 187.733 323.413 5.547 16.64 24.32 27.733 40.96 22.187s26.453-21.76 21.333-38.4c-43.093-133.12-110.933-250.027-202.24-350.72-6.827-6.4-15.787-9.813-24.32-9.813z" />
<glyph unicode="&#x24;" glyph-name="clipboard4" d="M556.779 131.409c-23.040 0-47.36 2.133-73.813 6.4l-200.107 31.573c-63.147 9.813-111.787 27.307-148.053 52.907-93.44 64.853-87.893 176.213-75.947 254.293l31.573 200.109c29.013 183.467 123.733 252.16 307.2 223.573l200.107-31.573c94.293-14.933 221.013-52.907 229.12-212.053 1.707-27.307 0-58.453-5.973-95.147l-31.147-200.109c-24.747-156.587-97.707-229.973-232.96-229.973zM321.259 842.665c-101.547 0-147.627-51.627-167.68-176.213l-31.573-200.109c-19.627-125.867 16.213-168.533 49.493-192 28.16-20.053 67.84-33.707 121.173-41.813l200.107-31.573c148.907-23.467 210.347 21.333 233.813 170.667l31.147 200.109c5.12 32 6.827 58.88 5.12 81.493v0.427c-4.693 89.6-55.467 133.547-175.36 152.32l-199.68 31.147c-24.747 3.84-46.507 5.547-66.56 5.547zM626.317-10.667c-36.267 0-77.227 7.68-124.587 23.467l-192.428 64c-109.653 36.271-168.96 88.324-186.88 164.271-2.987 12.8 2.133 26.453 13.227 33.707s25.6 7.253 36.267-0.427c28.16-20.053 67.413-33.707 120.747-41.813l200.108-31.578c148.907-23.467 210.347 21.338 233.813 170.671l31.147 200.105c5.12 32 6.827 58.88 5.12 81.493-0.427 11.093 5.12 22.187 14.933 28.587s22.187 6.827 32.427 1.28c114.347-61.013 144.64-158.718 95.147-308.051l-64-192.427c-30.293-90.453-69.973-145.924-125.44-173.658-26.88-13.227-56.32-19.627-89.6-19.627zM244.449 176.64c20.48-13.649 47.787-26.88 84.907-39.253l192.428-64c73.387-24.316 125.867-26.453 165.12-7.253 39.253 19.627 69.12 63.151 93.44 136.538l64 192.427c34.987 105.813 21.333 162.131-19.2 200.105-0.853-10.667-2.56-21.76-4.267-33.707l-31.147-200.105c-29.013-183.471-123.733-252.16-307.2-224.004l-200.108 31.573c-13.227 2.564-26.027 5.12-37.973 7.68zM351.573 545.28c-58.453 0-106.24 47.787-106.24 106.24s47.787 106.24 106.24 106.24c58.453 0 106.24-47.787 106.24-106.24s-47.787-106.24-106.24-106.24zM351.573 693.334c-23.040 0-42.24-18.773-42.24-42.24s18.773-42.24 42.24-42.24c23.040 0 42.24 18.773 42.24 42.24s-19.2 42.24-42.24 42.24z" />
<glyph unicode="&#x25;" glyph-name="clipboard-close4" d="M597.355 238.502c-8.107 0-16.213 2.987-22.613 9.387l-168.961 168.96c-12.373 12.373-12.373 32.853 0 45.227s32.855 12.373 45.228 0l168.96-168.96c12.373-12.373 12.373-32.853 0-45.227-6.4-5.973-14.507-9.387-22.613-9.387zM426.643 236.791c-8.107 0-16.213 2.987-22.613 9.387-12.373 12.373-12.373 32.853 0 45.227l168.962 168.96c12.373 12.373 32.853 12.373 45.227 0s12.373-32.853 0-45.227l-168.96-168.96c-6.4-6.4-14.507-9.387-22.615-9.387zM597.333 672h-170.667c-40.96 0-117.333 0-117.333 117.333s76.373 117.333 117.333 117.333h170.667c40.96 0 117.333 0 117.333-117.333 0-40.96 0-117.333-117.333-117.333zM426.667 842.667c-42.24 0-53.333 0-53.333-53.333s11.093-53.333 53.333-53.333h170.667c53.333 0 53.333 11.093 53.333 53.333 0 53.333-11.093 53.333-53.333 53.333h-170.667zM640-10.662h-256c-239.787 0-288 110.080-288 288v255.999c0 194.56 70.4 277.76 243.627 286.72 17.92 0.853 32.853-12.373 33.707-30.293s-12.8-32.427-30.293-33.28c-121.173-6.827-183.040-43.093-183.040-223.147v-255.999c0-157.867 31.147-224 224-224h256c192.853 0 224 66.133 224 224v255.999c0 180.053-61.867 216.32-183.040 223.147-17.493 0.853-31.147 16.213-30.293 33.707s16.213 31.147 33.707 30.293c173.227-9.387 243.627-92.587 243.627-286.72v-255.999c0-178.347-48.213-288.427-288-288.427z" />
<glyph unicode="&#x26;" glyph-name="clipboard-export4" d="M597.333 672h-170.667c-40.96 0-117.333 0-117.333 117.333s76.373 117.333 117.333 117.333h170.667c40.96 0 117.333 0 117.333-117.333 0-40.96 0-117.333-117.333-117.333zM426.667 842.667c-42.24 0-53.333 0-53.333-53.333s11.093-53.333 53.333-53.333h170.667c53.333 0 53.333 11.093 53.333 53.333 0 53.333-11.093 53.333-53.333 53.333h-170.667zM597.333-10.675h-213.333c-239.787 0-288 110.080-288 288v256c0 194.56 70.4 277.76 243.627 286.72 16.64 0.853 32.853-12.373 33.707-30.293s-12.8-32.427-30.293-33.28c-121.173-6.827-183.040-43.093-183.040-223.146v-256c0-157.867 31.147-224 224-224h213.333c17.493 0 32-14.507 32-32s-14.507-32-32-32zM896.038 288.004c-17.493 0-32 14.507-32 32v213.332c0 180.053-61.867 216.32-183.040 223.147-17.493 0.853-31.147 16.213-30.293 33.707s16.213 31.147 33.707 30.293c173.227-9.387 243.627-92.587 243.627-286.72v-213.332c0-17.92-14.507-32.427-32-32.427zM640 117.333c-17.493 0-32 14.507-32 32v128c0 17.493 14.507 32 32 32h128c17.493 0 32-14.507 32-32s-14.507-32-32-32h-96v-96c0-17.493-14.507-32-32-32zM896.021-10.667c-8.107 0-16.213 2.987-22.613 9.387l-254.293 254.293c-12.373 12.373-12.373 32.853 0 45.227s32.853 12.373 45.227 0l254.293-254.293c12.373-12.373 12.373-32.853 0-45.227-6.4-6.4-14.507-9.387-22.613-9.387z" />
<glyph unicode="&#x27;" glyph-name="clipboard-import4" d="M597.333 672h-170.667c-40.96 0-117.333 0-117.333 117.333s76.373 117.333 117.333 117.333h170.667c40.96 0 117.333 0 117.333-117.333 0-40.96 0-117.333-117.333-117.333zM426.667 842.667c-42.24 0-53.333 0-53.333-53.333s11.093-53.333 53.333-53.333h170.667c53.333 0 53.333 11.093 53.333 53.333 0 53.333-11.093 53.333-53.333 53.333h-170.667zM597.333-10.675h-213.333c-239.787 0-288 110.080-288 288v256c0 194.56 70.4 277.76 243.627 286.72 17.067 0.853 32.853-12.373 33.707-30.293s-12.8-32.427-30.293-33.28c-121.173-6.827-183.040-43.093-183.040-223.146v-256c0-157.867 31.147-224 224-224h213.333c17.493 0 32-14.507 32-32s-14.507-32-32-32zM896.038 288.004c-17.493 0-32 14.507-32 32v213.332c0 180.053-61.867 216.32-183.040 223.147-17.493 0.853-31.147 16.213-30.293 33.707s16.64 31.147 33.707 30.293c173.227-9.387 243.627-92.587 243.627-286.72v-213.332c0-17.92-14.507-32.427-32-32.427zM896-10.667h-128c-17.493 0-32 14.507-32 32s14.507 32 32 32h96v96c0 17.493 14.507 32 32 32s32-14.507 32-32v-128c0-17.493-14.507-32-32-32zM894.272-8.956c-8.107 0-16.213 2.987-22.613 9.387l-254.293 254.293c-12.373 12.373-12.373 32.853 0 45.227s32.853 12.373 45.227 0l254.293-254.293c12.373-12.373 12.373-32.853 0-45.227-6.4-5.973-14.507-9.387-22.613-9.387z" />
<glyph unicode="&#x28;" glyph-name="clipboard-text4" d="M640 407.458h-298.667c-17.493 0-32 14.507-32 32s14.507 32 32 32h298.667c17.493 0 32-14.507 32-32s-14.507-32-32-32zM528.213 236.791h-186.88c-17.493 0-32 14.507-32 32s14.507 32 32 32h186.88c17.493 0 32-14.507 32-32s-14.507-32-32-32zM597.333 672h-170.667c-40.96 0-117.333 0-117.333 117.333s76.373 117.333 117.333 117.333h170.667c40.96 0 117.333 0 117.333-117.333 0-40.96 0-117.333-117.333-117.333zM426.667 842.667c-42.24 0-53.333 0-53.333-53.333s11.093-53.333 53.333-53.333h170.667c53.333 0 53.333 11.093 53.333 53.333 0 53.333-11.093 53.333-53.333 53.333h-170.667zM640-10.662h-256c-239.787 0-288 110.080-288 288v255.999c0 194.56 70.4 277.76 243.627 286.72 17.067 0.853 32.853-12.373 33.707-30.293s-12.8-32.427-30.293-33.28c-121.173-6.827-183.040-43.093-183.040-223.147v-255.999c0-157.867 31.147-224 224-224h256c192.853 0 224 66.133 224 224v255.999c0 180.053-61.867 216.32-183.040 223.147-17.493 0.853-31.147 16.213-30.293 33.707s16.213 31.147 33.707 30.293c173.227-9.387 243.627-92.587 243.627-286.72v-255.999c0-178.347-48.213-288.427-288-288.427z" />
<glyph unicode="&#x29;" glyph-name="clipboard-tick4" d="M461.227 236.796c-8.107 0-16.213 2.987-22.613 9.387l-64 64c-12.373 12.373-12.373 32.853 0 45.227s32.853 12.373 45.227 0l41.387-41.387 148.053 148.053c12.373 12.373 32.853 12.373 45.227 0s12.373-32.853 0-45.227l-170.667-170.667c-5.973-6.4-14.507-9.387-22.613-9.387zM597.333 672h-170.667c-40.96 0-117.333 0-117.333 117.333s76.373 117.333 117.333 117.333h170.667c40.96 0 117.333 0 117.333-117.333 0-40.96 0-117.333-117.333-117.333zM426.667 842.667c-42.24 0-53.333 0-53.333-53.333s11.093-53.333 53.333-53.333h170.667c53.333 0 53.333 11.093 53.333 53.333 0 53.333-11.093 53.333-53.333 53.333h-170.667zM640-10.662h-256c-239.787 0-288 110.080-288 288v255.999c0 194.56 70.4 277.76 243.627 286.72 17.493 0.853 32.853-12.373 33.707-30.293s-12.8-32.427-30.293-33.28c-121.173-6.827-183.040-43.093-183.040-223.147v-255.999c0-157.867 31.147-224 224-224h256c192.853 0 224 66.133 224 224v255.999c0 180.053-61.867 216.32-183.040 223.147-17.493 0.853-31.147 16.213-30.293 33.707s15.787 31.147 33.707 30.293c173.227-9.387 243.627-92.587 243.627-286.72v-255.999c0-178.347-48.213-288.427-288-288.427z" />
<glyph unicode="&#x2a;" glyph-name="clock4" d="M512-10.667c-253.013 0-458.667 205.653-458.667 458.667s205.653 458.667 458.667 458.667c253.013 0 458.667-205.653 458.667-458.667s-205.653-458.667-458.667-458.667zM512 842.667c-217.6 0-394.667-177.067-394.667-394.667s177.067-394.667 394.667-394.667c217.6 0 394.667 177.067 394.667 394.667s-177.067 394.667-394.667 394.667zM670.276 280.32c-5.547 0-11.093 1.28-16.213 4.693l-132.267 78.933c-32.853 19.627-57.173 62.72-57.173 100.693v174.933c0 17.493 14.507 32 32 32s32-14.507 32-32v-174.933c0-15.36 12.8-37.973 26.027-45.653l132.267-78.933c15.36-8.96 20.053-28.587 11.093-43.947-6.4-10.24-17.067-15.787-27.733-15.787z" />
<glyph unicode="&#x2b;" glyph-name="clock-14" d="M571.733 337.071c-8.107 0-16.213 2.987-22.613 9.387l-59.733 59.733c-5.973 5.973-9.387 14.080-9.387 22.613v119.040c0 17.493 14.507 32 32 32s32-14.507 32-32v-105.813l50.347-50.347c12.373-12.373 12.373-32.853 0-45.227-6.4-6.4-14.507-9.387-22.613-9.387zM512 138.667c-67.84 0-131.84 21.333-185.6 61.867-1.28 0.853-2.133 1.28-3.413 2.133-76.373 59.307-120.32 148.907-120.32 245.333 0 170.667 138.667 309.333 309.333 309.333s309.333-138.667 309.333-309.333c0-96-43.52-184.747-119.040-244.053-1.28-0.853-2.133-1.707-3.413-2.56-54.187-40.96-118.613-62.72-186.88-62.72zM359.68 255.573c1.28-0.853 2.133-1.28 2.987-2.133 86.613-66.987 213.76-66.56 299.947 0.853 0.853 0.853 2.133 1.707 2.987 2.133 58.453 46.933 91.733 116.48 91.733 191.573 0 135.253-110.080 245.333-245.333 245.333s-245.333-110.080-245.333-245.333c0-75.52 33.707-145.493 93.013-192.427zM535.45-10.671h-46.507c-83.627 0-134.827 41.387-156.587 127.147l-21.333 105.387c-1.707 9.387 0.427 19.2 6.827 26.453s15.36 11.52 24.747 11.52h0.427c7.253 0 14.080-2.133 19.627-6.827 86.614-66.987 213.76-66.56 299.947 0.853 13.227 10.24 34.133 8.107 44.8-5.12 5.973-7.253 8.533-17.067 6.827-26.453l-21.76-105.387c-22.613-86.187-73.813-127.573-157.013-127.573zM387.823 164.689l6.827-34.133c16.213-64 49.494-77.227 94.294-77.227h46.507c44.373 0 77.653 13.227 94.293 78.080l6.827 33.28c-77.227-34.133-171.093-34.56-248.747 0zM682.679 634.88c-7.253 0-14.507 2.56-20.053 6.827-86.187 67.413-213.333 67.84-299.949 0.853-13.227-10.24-34.133-8.107-44.373 4.693-5.973 7.253-8.533 17.067-6.827 26.453l20.907 104.107c21.76 87.467 72.96 128.853 156.589 128.853h46.507c83.2 0 134.396-41.387 156.156-126.293l22.191-107.093c2.133-9.387-0.427-19.2-6.4-26.453-5.973-7.68-14.933-11.947-24.747-11.947zM512.013 757.333c43.947 0 85.76-8.96 124.587-26.027l-7.253 34.56c-16.64 63.147-49.493 76.8-93.867 76.8h-46.507c-44.8 0-78.082-13.227-94.295-78.933l-6.827-32.427c38.829 17.067 80.642 26.027 124.162 26.027z" />
<glyph unicode="&#x2c;" glyph-name="close-circle4" d="M512-10.667c-253.013 0-458.667 205.653-458.667 458.667s205.653 458.667 458.667 458.667c253.013 0 458.667-205.653 458.667-458.667s-205.653-458.667-458.667-458.667zM512 842.667c-217.6 0-394.667-177.067-394.667-394.667s177.067-394.667 394.667-394.667c217.6 0 394.667 177.067 394.667 394.667s-177.067 394.667-394.667 394.667zM391.226 295.249c-8.107 0-16.213 2.987-22.613 9.387-12.373 12.373-12.373 32.853 0 45.227l241.494 241.493c12.373 12.373 32.853 12.373 45.227 0s12.373-32.853 0-45.227l-241.495-241.493c-5.973-6.4-14.507-9.387-22.613-9.387zM632.721 295.249c-8.107 0-16.213 2.987-22.613 9.387l-241.494 241.493c-12.373 12.373-12.373 32.853 0 45.227s32.853 12.373 45.226 0l241.495-241.493c12.373-12.373 12.373-32.853 0-45.227-6.4-6.4-14.507-9.387-22.613-9.387z" />
<glyph unicode="&#x2d;" glyph-name="close-square4" d="M391.226 295.249c-8.107 0-16.213 2.987-22.613 9.387-12.373 12.373-12.373 32.853 0 45.227l241.494 241.493c12.373 12.373 32.853 12.373 45.227 0s12.373-32.853 0-45.227l-241.495-241.493c-5.973-6.4-14.507-9.387-22.613-9.387zM632.721 295.249c-8.107 0-16.213 2.987-22.613 9.387l-241.494 241.493c-12.373 12.373-12.373 32.853 0 45.227s32.853 12.373 45.226 0l241.495-241.493c12.373-12.373 12.373-32.853 0-45.227-6.4-6.4-14.507-9.387-22.613-9.387zM640-10.667h-256c-231.68 0-330.667 98.987-330.667 330.667v256c0 231.68 98.987 330.667 330.667 330.667h256c231.68 0 330.667-98.987 330.667-330.667v-256c0-231.68-98.987-330.667-330.667-330.667zM384 842.667c-196.693 0-266.667-69.973-266.667-266.667v-256c0-196.693 69.973-266.667 266.667-266.667h256c196.693 0 266.667 69.973 266.667 266.667v256c0 196.693-69.973 266.667-266.667 266.667h-256z" />
<glyph unicode="&#x2e;" glyph-name="cloud4" d="M711.642 71.249c-0.427 0-1.28 0-1.707 0h-473.175c-125.44 8.96-181.76 105.387-181.76 191.573 0 76.8 44.8 162.133 142.507 185.6-27.307 106.668-4.267 206.934 65.28 279.468 78.933 82.773 205.655 115.627 314.455 81.92 99.84-30.72 170.24-113.067 195.84-227.413 87.467-19.627 157.013-85.761 185.173-177.068 30.293-99.413 2.987-201.387-71.68-266.667-47.787-43.093-110.080-67.413-174.933-67.413zM237.613 390.396c-0.427 0-0.427 0-0.853 0-81.067-5.973-118.187-68.267-118.187-127.573s37.12-121.6 119.893-127.573h471.042c49.493 0.853 96.853 17.92 133.547 51.2 66.56 58.453 71.253 141.653 53.333 200.107-17.92 58.88-67.84 125.44-154.88 136.533-14.080 1.707-25.173 12.374-27.733 26.454-17.067 102.4-72.533 173.227-155.733 198.827-86.613 26.453-186.455 0.427-249.175-64.853-56.747-59.307-72.96-141.227-46.507-231.254 21.76-2.987 42.667-9.387 61.867-19.2 15.787-8.107 22.187-27.307 14.080-43.093s-27.307-22.187-43.093-14.080c-17.493 8.96-36.693 13.653-55.893 13.653-0.427 0.853-0.853 0.853-1.707 0.853zM676.267 504.747c-11.947 0-23.040 6.4-28.587 17.92-8.107 15.788-1.28 34.988 14.507 43.094 26.453 13.227 55.893 20.48 84.907 20.907 17.067 0.427 32.427-13.653 32.427-31.573 0.427-17.493-13.653-32.428-31.573-32.428-19.627-0.427-39.68-5.12-57.6-14.080-4.693-2.56-9.387-3.84-14.080-3.84z" />
<glyph unicode="&#x2f;" glyph-name="cloud-add4" d="M318.305 134.822h-81.922c-125.44 8.96-181.758 105.387-181.758 191.147s56.318 182.613 179.625 191.147c17.493 1.707 32.853-11.947 34.133-29.867 1.28-17.493-11.945-32.853-29.865-34.133-82.773-5.973-119.893-68.267-119.893-127.573s37.12-121.6 119.893-127.573h79.787c17.493 0 32-14.507 32-32s-14.507-31.147-32-31.147zM711.249 134.827c-0.853 0-1.28 0-2.133 0-17.493 0-33.707 14.507-33.707 32 0 18.347 13.653 32 31.573 32 52.48 0 99.413 18.347 136.107 51.2 66.56 58.027 70.827 141.653 52.907 200.533-17.92 58.453-67.84 125.44-154.88 136.107-14.080 1.707-25.173 12.373-27.733 26.453-17.067 102.4-72.107 173.227-155.733 198.827-86.187 26.88-186.88 0.427-249.601-65.28-61.013-63.573-75.093-152.747-39.68-250.88 5.973-16.64-2.558-34.987-19.198-40.96s-34.988 2.56-40.961 19.2c-43.093 120.32-23.466 235.52 53.76 316.587 78.933 82.773 205.652 115.627 314.452 82.347 99.84-30.72 170.24-113.067 195.84-227.413 87.040-19.627 157.013-85.76 184.747-177.067 30.293-99.413 2.987-201.813-71.68-266.667-47.36-42.667-109.227-66.987-174.080-66.987zM512 9.387c-85.76 0-165.972 45.653-209.919 119.467-4.693 7.253-9.387 15.787-13.227 25.173-14.507 30.293-22.188 64.853-22.188 100.693 0 135.253 110.080 245.333 245.333 245.333s245.333-110.080 245.333-245.333c0-36.267-7.68-70.4-23.040-101.973-3.413-8.107-8.107-16.64-13.227-24.747-43.093-72.96-123.307-118.613-209.067-118.613zM512 436.053c-99.84 0-181.333-81.493-181.333-181.333 0-26.453 5.547-51.2 16.213-73.813 3.413-7.253 6.4-13.227 9.813-18.773 32.427-55.040 91.734-88.747 154.88-88.747s122.453 33.707 154.453 87.893c3.84 6.4 7.253 12.373 9.813 18.347 11.52 23.467 17.067 48.213 17.067 74.667 0.427 100.267-81.067 181.76-180.907 181.76zM487.676 180.489c-8.107 0-16.213 2.987-22.613 9.387l-42.241 42.24c-12.373 12.373-12.373 32.853 0 45.227s32.854 12.373 45.228 0l20.48-20.48 68.267 63.147c13.227 11.947 33.28 11.093 45.227-1.707s11.093-33.28-1.707-45.227l-90.88-84.053c-6.4-5.547-14.080-8.533-21.76-8.533z" />
<glyph unicode="&#x30;" glyph-name="cloud-change4" d="M631.893 230.404c-0.427 0-0.853 0-1.28 0h-284.587c-84.48 5.973-122.026 70.396-122.026 128 0 48.213 26.454 101.116 83.2 120.742-12.8 64 2.987 123.734 45.227 168.107 50.773 53.333 132.266 74.24 202.24 52.906 62.293-19.2 107.093-69.12 124.587-138.667 53.333-14.933 95.573-56.747 113.067-113.493 19.627-64.853 1.707-131.413-46.933-173.653-30.72-28.16-71.253-43.942-113.493-43.942zM347.307 422.404c-43.52-3.84-59.307-36.693-59.307-64 0-27.733 15.787-61.018 60.16-64h282.453c27.733 0 52.053 9.382 71.68 27.729 35.84 31.147 37.973 75.947 28.587 107.52s-36.267 67.418-82.773 72.964c-14.080 1.707-25.173 12.373-27.733 26.453-9.387 56.745-39.68 95.569-84.907 109.649-46.507 14.507-103.253-0.425-136.96-35.839-33.28-34.56-40.533-83.624-21.333-137.81 5.973-16.64-2.56-34.991-19.2-40.964-3.413-1.28-8.96-2.133-10.667-1.702zM384-10.667c-182.187 0-330.667 148.48-330.667 330.667 0 17.493 14.507 32 32 32s32-14.507 32-32c0-126.293 87.893-232.107 206.080-259.84l-11.52 19.2c-8.96 15.36-4.266 34.987 11.094 43.947 14.933 8.96 34.987 4.267 43.947-11.093l44.799-74.667c5.973-9.813 5.974-22.187 0.427-32-5.973-9.813-16.64-16.213-28.16-16.213zM938.684 544c-17.493 0-32 14.507-32 32 0 126.293-87.893 232.108-206.080 259.841l11.52-19.201c8.96-15.36 4.267-34.988-11.093-43.948-14.933-8.96-34.987-4.267-43.947 11.094l-44.8 74.667c-5.973 9.813-5.973 22.187-0.427 32 5.547 10.24 16.213 16.213 27.733 16.213 182.187 0 330.667-148.48 330.667-330.667 0.427-17.493-14.080-32-31.573-32z" />
<glyph unicode="&#x31;" glyph-name="cloud-connection4" d="M685.218 245.338c-0.427 0-0.853 0-1.707 0h-412.16c-112.213 7.68-162.56 93.867-162.56 170.667 0 67.413 38.828 142.078 123.308 164.265-22.187 92.587-1.707 179.202 58.453 242.349 69.973 73.387 181.76 102.398 278.613 72.531 87.893-26.88 149.76-98.558 172.8-197.971 76.373-18.347 137.387-76.375 161.707-156.589 26.88-87.892 2.133-177.918-64-235.518-41.387-38.4-96.427-59.733-154.453-59.733zM273.059 522.244c-68.693-5.547-99.413-57.173-99.413-106.24 0-49.493 31.146-101.547 100.693-106.667h410.026c0.427 0 0.853 0 1.28 0 41.813 0 81.92 15.36 112.213 43.52 56.32 49.067 60.16 119.467 45.227 169.387-15.36 49.919-57.6 106.24-131.84 115.626-14.080 1.707-25.173 12.373-27.733 26.453-14.507 87.467-61.867 147.625-132.693 169.385-72.96 22.187-160.426-0.427-213.332-55.893-51.627-54.187-63.574-129.707-33.707-213.333 5.973-16.64-2.559-34.985-19.199-40.958-3.84-0.853-7.254-1.707-11.521-1.28zM512 117.333c-17.493 0-32 14.507-32 32v128c0 17.493 14.507 32 32 32s32-14.507 32-32v-128c0-17.493-14.507-32-32-32zM512-53.333c-64.853 0-117.333 52.48-117.333 117.333s52.48 117.333 117.333 117.333c64.853 0 117.333-52.48 117.333-117.333s-52.48-117.333-117.333-117.333zM512 117.333c-29.44 0-53.333-23.893-53.333-53.333s23.893-53.333 53.333-53.333c29.44 0 53.333 23.893 53.333 53.333s-23.893 53.333-53.333 53.333zM768 32h-170.667c-17.493 0-32 14.507-32 32s14.507 32 32 32h170.667c17.493 0 32-14.507 32-32s-14.507-32-32-32zM426.667 32h-170.667c-17.493 0-32 14.507-32 32s14.507 32 32 32h170.667c17.493 0 32-14.507 32-32s-14.507-32-32-32z" />
<glyph unicode="&#x32;" glyph-name="cloud-cross4" d="M710.387 74.667c-0.427 0-1.28 0-1.707 0-17.493 0-32 14.507-31.573 32.427 0 17.493 14.507 31.573 32 31.573 0.427 0 1.28 0 1.707 0 48.64 0 95.147 17.92 130.987 51.2 66.133 58.027 70.827 140.8 52.907 199.253s-67.413 124.587-154.027 135.68c-14.080 1.707-25.173 12.373-27.733 26.453-17.067 101.973-72.107 172.373-154.88 197.973-86.187 26.453-185.599 0.427-247.892-64.853-60.587-63.574-74.667-151.893-39.68-249.6 5.973-16.64-2.56-34.987-19.2-40.96s-34.987 2.56-40.96 19.2c-43.093 119.893-23.467 234.666 53.76 315.306 78.507 82.347 204.372 115.2 313.172 81.493 99.413-30.72 169.813-112.64 194.987-226.133 87.040-19.627 156.587-85.333 184.32-176.213 30.293-98.987 2.56-200.533-71.253-265.387-48.64-43.52-110.507-67.413-174.933-67.413zM237.657 74.667c-0.853 0-1.707 0-2.133 0-122.88 8.533-178.773 104.96-178.773 190.72s55.893 181.76 178.773 190.72c32 0.427 62.72-6.827 90.027-20.48 15.787-8.107 21.76-27.307 14.080-43.093-8.107-15.787-27.307-21.76-43.093-14.080-17.92 9.387-38.827 13.227-58.027 13.653-80.64-5.973-117.333-67.84-117.333-126.72s36.693-120.747 119.467-126.72c17.493-1.28 30.72-16.64 29.44-34.133-1.707-17.067-15.787-29.867-32.427-29.867zM675.012 506.027c-11.52 0-23.040 6.4-28.587 17.92-8.107 15.788-1.707 34.988 14.507 43.095 26.027 13.227 55.467 20.48 84.48 20.907 16.64-0.853 32.427-13.653 32.427-31.573 0.427-17.493-13.653-32.428-31.573-32.428-19.627-0.427-39.253-5.12-57.173-14.080-4.267-2.987-9.387-3.84-14.080-3.84zM407.893 14.507c-8.107 0-16.213 2.987-22.613 9.387-12.373 12.373-12.373 32.853 0 45.227l120.747 120.747c12.373 12.373 32.853 12.373 45.227 0s12.373-32.853 0-45.227l-120.747-120.747c-6.4-6.4-14.507-9.387-22.613-9.387zM528.64 14.507c-8.107 0-16.213 2.987-22.613 9.387l-120.747 120.747c-12.373 12.373-12.373 32.853 0 45.227s32.853 12.373 45.227 0l120.747-120.747c12.373-12.373 12.373-32.853 0-45.227-6.4-6.4-14.507-9.387-22.613-9.387z" />
<glyph unicode="&#x33;" glyph-name="cloud-drizzle4" d="M710.387 74.667c-0.427 0-1.28 0-1.707 0-17.493 0-32 14.507-31.573 32.427 0 17.493 14.507 31.573 32 31.573 0.427 0 1.28 0 1.707 0 48.64 0 95.147 17.92 130.987 51.2 66.133 58.027 70.827 140.8 52.907 199.253s-67.413 124.587-154.027 135.68c-14.080 1.707-25.173 12.373-27.733 26.453-17.067 101.973-72.107 172.373-154.88 197.973-86.187 26.453-185.599 0.427-247.892-64.853-60.587-63.574-74.667-151.893-39.68-249.6 5.973-16.64-2.56-34.987-19.2-40.96s-34.987 2.56-40.96 19.2c-43.093 119.893-23.467 234.666 53.76 315.306 78.933 82.347 204.372 115.2 313.172 81.493 99.413-30.72 169.813-112.64 194.987-226.133 87.040-19.627 156.587-85.333 184.32-176.213 30.293-98.987 2.56-200.533-71.253-265.387-48.64-43.52-110.507-67.413-174.933-67.413zM237.657 74.667c-0.853 0-1.707 0-2.133 0-122.88 8.533-178.773 104.96-178.773 190.72s55.893 181.76 178.773 190.72c31.573 0.427 62.72-6.827 90.027-20.48 15.787-8.107 21.76-27.307 14.080-43.093-8.107-15.787-27.307-21.76-43.093-14.080-17.92 9.387-38.4 13.227-58.027 13.653-80.64-5.973-117.333-67.84-117.333-126.72s36.693-120.747 119.467-126.72c17.493-1.28 30.72-16.64 29.44-34.133-1.707-17.067-15.787-29.867-32.427-29.867zM675.012 506.027c-11.52 0-23.040 6.4-28.587 17.92-8.107 15.788-1.707 34.988 14.507 43.095 26.027 13.227 55.467 20.48 84.48 20.907 16.213-0.853 32.427-13.653 32.427-31.573 0.427-17.493-13.653-32.428-31.573-32.428-19.627-0.427-39.253-5.12-57.173-14.080-4.267-2.987-9.387-3.84-14.080-3.84zM340.060-10.662c-8.107 0-16.213 2.987-22.613 9.387-12.373 12.373-12.373 32.853 0 45.227l85.333 85.333c12.373 12.373 32.855 12.373 45.228 0s12.373-32.853 0-45.227l-85.335-85.333c-5.973-6.4-14.080-9.387-22.613-9.387zM510.729-10.662c-8.107 0-16.213 2.987-22.613 9.387-12.373 12.373-12.373 32.853 0 45.227l85.333 85.333c12.373 12.373 32.853 12.373 45.227 0s12.373-32.853 0-45.227l-85.333-85.333c-5.973-6.4-14.080-9.387-22.613-9.387zM510.729 160.004c-8.107 0-16.213 2.987-22.613 9.387-12.373 12.373-12.373 32.853 0 45.227l85.333 85.333c12.373 12.373 32.853 12.373 45.227 0s12.373-32.853 0-45.227l-85.333-85.333c-5.973-6.4-14.080-9.387-22.613-9.387zM340.060 160.004c-8.107 0-16.213 2.987-22.613 9.387-12.373 12.373-12.373 32.853 0 45.227l85.333 85.333c12.373 12.373 32.855 12.373 45.228 0s12.373-32.853 0-45.227l-85.335-85.333c-5.973-6.4-14.080-9.387-22.613-9.387z" />
<glyph unicode="&#x34;" glyph-name="cloud-fog4" d="M183.043 432.222c-13.227 0-25.599 8.107-30.292 21.333-43.093 120.318-23.466 235.944 53.76 316.584 78.933 82.773 205.227 115.628 314.452 81.921 99.84-30.72 170.24-113.066 195.84-227.413 76.8-17.493 141.227-71.253 174.080-148.052 6.827-16.213-0.427-34.991-16.64-42.244-16.213-6.827-34.987 0.431-42.24 16.644-27.733 64-81.067 105.385-146.773 113.918-14.080 1.707-25.173 12.373-27.733 26.453-17.067 102.4-72.533 173.227-155.733 198.827-86.186 26.453-186.454 0.427-249.174-64.853-61.013-63.573-75.093-152.747-40.107-250.878 5.973-16.64-2.558-34.987-19.198-40.96-2.987-0.427-6.829-1.28-10.242-1.28zM620.352 546.987c-11.947 0-23.040 6.399-28.587 17.919-8.107 15.787-1.28 34.987 14.507 43.094 26.88 13.227 55.467 20.48 84.907 20.906 18.347-0.853 32.427-13.653 32.427-31.573 0.427-17.493-13.658-32.427-31.578-32.427-20.053-0.427-39.249-5.12-57.596-14.080-4.693-2.987-9.387-3.84-14.080-3.84zM853.333 286.72h-682.667c-17.493 0-32 14.507-32 32s14.507 32 32 32h682.667c17.493 0 32-14.507 32-32s-14.507-32-32-32zM768 158.72h-512c-17.493 0-32 14.507-32 32s14.507 32 32 32h512c17.493 0 32-14.507 32-32s-14.507-32-32-32zM640 30.72h-256c-17.493 0-32 14.507-32 32s14.507 32 32 32h256c17.493 0 32-14.507 32-32s-14.507-32-32-32z" />
<glyph unicode="&#x35;" glyph-name="cloud-lightning4" d="M710.379 74.667c-0.427 0-1.28 0-1.707 0-17.493 0-32 14.507-31.573 32.427 0 17.493 14.933 33.28 32.427 31.573 49.493 0 96.427 17.92 132.693 51.2 66.133 58.027 70.827 140.8 52.907 199.253s-67.84 124.587-154.027 135.68c-14.080 1.707-25.173 12.373-27.733 26.453-16.64 101.973-72.107 172.373-154.88 197.973-86.187 26.453-185.6 0.427-247.894-64.853-60.587-63.574-74.667-151.893-39.68-249.6 5.973-16.64-2.56-34.987-19.2-40.96s-34.987 2.56-40.96 19.2c-43.093 119.893-23.467 234.666 53.76 315.306 78.933 82.347 204.374 115.2 313.174 81.493 99.413-30.72 169.813-112.64 194.987-226.133 87.040-19.627 156.587-85.333 184.32-176.213 30.293-98.987 2.987-200.533-71.253-265.387-49.067-43.52-110.933-67.413-175.36-67.413zM237.657 74.662c-0.853 0-1.707 0-2.133 0-122.88 8.533-178.773 104.96-178.773 190.72s55.893 181.76 178.773 190.72c32.427-0.427 62.72-6.827 90.027-20.48 15.787-8.107 21.76-27.307 14.080-43.093-8.107-15.787-27.307-21.76-43.093-14.080-17.92 9.387-38.4 13.653-58.027 13.653-80.64-5.973-117.333-67.84-117.333-126.72s36.693-120.747 119.040-126.72c17.493-1.28 30.72-16.64 29.867-34.133-1.707-17.067-15.787-29.867-32.427-29.867zM675.012 506.027c-11.947 0-23.040 6.4-28.587 17.92-8.107 15.788-1.707 34.988 14.507 43.095 26.027 13.227 55.467 20.48 84.48 20.907h0.427c17.493 0 31.573-14.080 32-31.573s-13.653-32.428-31.573-32.428c-19.627-0.427-39.253-5.12-57.173-14.080-4.693-2.987-9.387-3.84-14.080-3.84zM452.723-5.116c-5.547 0-11.52 0.853-17.067 2.987-18.772 7.253-31.145 24.747-31.145 44.8v67.413h-10.667c-32 0-43.52 18.773-47.36 26.453-3.413 8.533-9.387 29.867 11.52 53.333l104.532 119.040c13.227 14.933 34.133 20.48 52.907 13.227s31.147-24.747 31.147-44.8v-67.413h10.667c31.573 0 43.52-18.773 47.36-26.453s9.813-29.013-11.093-52.907l-104.533-119.040c-9.813-10.667-23.040-16.64-36.267-16.64zM429.257 174.511h7.253c17.493 0 32-14.507 32-32v-56.747l52.907 60.16h-7.253c-17.493 0-32 14.507-32 32v56.747l-52.907-60.16z" />
<glyph unicode="&#x36;" glyph-name="cloud-minus4" d="M553.417 74.667h-170.667c-17.493 0-32 14.507-32 32s14.507 32 32 32h170.667c17.493 0 32-14.507 32-32s-14.080-32-32-32zM710.387 74.667c-0.427 0-1.28 0-1.707 0-17.493 0-32 14.507-31.573 32.427 0 17.493 14.507 31.573 32 31.573 0.427 0 1.28 0 1.707 0 48.64 0 95.147 17.92 130.987 51.2 66.133 58.027 70.827 140.8 52.907 199.253s-67.413 124.587-154.027 135.68c-14.080 1.707-25.173 12.373-27.733 26.453-17.067 101.973-72.107 172.373-154.88 197.973-86.187 26.453-185.599 0.427-247.892-64.853-60.587-63.574-74.667-151.893-39.68-249.6 5.973-16.64-2.56-34.987-19.2-40.96s-34.987 2.56-40.96 19.2c-43.093 119.893-23.467 234.666 53.76 315.306 78.933 82.347 204.799 115.2 313.172 81.493 99.413-30.72 169.813-112.64 194.987-226.133 87.040-19.627 156.587-85.333 184.32-176.213 30.293-98.987 2.56-200.533-71.253-265.387-48.64-43.52-110.507-67.413-174.933-67.413zM237.657 74.667c-0.853 0-1.707 0-2.133 0-122.88 8.533-178.773 104.96-178.773 190.72s55.893 181.76 178.773 190.72c31.573 0.427 62.72-6.827 90.027-20.48 15.787-8.107 21.76-27.307 14.080-43.093-8.107-15.787-27.307-21.76-43.093-14.080-17.92 9.387-38.4 13.227-58.027 13.653-80.64-5.973-117.333-67.84-117.333-126.72s36.693-120.747 119.467-126.72c17.493-1.28 30.72-16.64 29.44-34.133-1.707-17.067-15.787-29.867-32.427-29.867zM675.012 506.027c-11.52 0-23.040 6.4-28.587 17.92-8.107 15.788-1.707 34.988 14.507 43.095 26.027 13.227 55.467 20.48 84.48 20.907 16.64-0.853 32.427-13.653 32.427-31.573 0.427-17.493-13.653-32.428-31.573-32.428-19.627-0.427-39.253-5.12-57.173-14.080-4.267-2.987-9.387-3.84-14.080-3.84z" />
<glyph unicode="&#x37;" glyph-name="cloud-notif4" d="M711.223 71.253c-0.853 0-1.28 0-1.707 0h-473.173c-125.44 8.96-181.76 105.813-181.76 191.573 0 76.8 44.8 162.133 142.080 185.6-26.88 107.52-3.413 208.213 67.413 281.173 80.213 82.773 207.787 114.773 316.587 79.36 16.64-5.547 26.027-23.467 20.48-40.107s-23.467-26.027-40.107-20.48c-86.613 27.733-187.733 2.56-251.307-63.573-61.867-64-76.373-153.173-40.96-251.733 3.413-9.813 2.133-20.907-3.84-29.013s-15.787-13.653-26.027-13.653c-82.773-5.973-119.893-68.267-119.893-127.573s37.12-121.6 119.893-128h471.040c48.64-0.427 97.28 17.92 133.547 51.2 49.067 43.093 70.4 105.813 59.733 172.373-2.987 17.493 8.96 33.707 26.453 36.693s33.707-8.96 36.693-26.453c14.507-87.893-15.787-174.080-79.787-230.4-47.787-42.667-110.080-66.987-175.36-66.987zM309.753 372.902c-4.693 0-9.813 1.28-14.080 3.413-17.92 8.96-37.547 13.653-57.6 14.080-17.493 0.427-31.573 14.933-31.573 32.427 0.427 17.493 17.067 32 32.427 31.573 29.44-0.427 58.88-7.68 84.907-20.907 15.787-7.68 22.187-27.307 14.507-43.093-5.547-11.093-16.64-17.493-28.587-17.493zM788.083 416c-99.84 0-181.333 81.493-181.333 181.333 0 46.933 17.92 91.307 50.347 124.587 0.853 1.28 1.707 2.133 2.56 2.987 34.133 34.56 79.36 53.333 128 53.333 99.84 0 181.333-81.493 181.333-181.333 0-55.467-24.747-107.093-68.267-141.653-31.147-25.173-71.253-39.253-112.64-39.253zM708.297 682.666c-0.853-1.28-1.707-2.133-2.987-3.413-22.187-21.76-34.56-51.2-34.56-82.347 0-64.853 52.48-117.333 117.333-117.333 26.453 0 52.48 8.96 72.96 25.6 28.587 22.613 44.373 55.893 44.373 91.733 0 64.853-52.48 117.333-117.333 117.333-30.293 0.427-58.453-11.093-79.787-31.573z" />
<glyph unicode="&#x38;" glyph-name="cloud-plus4" d="M710.387 74.667c-0.427 0-1.28 0-1.707 0-17.493 0-32 14.507-31.573 32.427 0 17.493 14.507 31.573 32 31.573 0.427 0 1.28 0 1.707 0 48.64 0 95.147 17.92 130.987 51.2 66.133 58.027 70.827 140.8 52.907 199.253s-67.413 124.587-154.027 135.68c-14.080 1.707-25.173 12.373-27.733 26.453-17.067 101.973-72.107 172.373-154.88 197.973-86.187 26.453-185.599 0.427-247.892-64.853-60.587-63.574-74.667-151.893-39.68-249.6 5.973-16.64-2.56-34.987-19.2-40.96s-34.987 2.56-40.96 19.2c-43.093 119.893-23.467 234.666 53.76 315.306 78.933 82.347 204.372 115.2 313.172 81.493 99.413-30.72 169.813-112.64 194.987-226.133 87.040-19.627 156.587-85.333 184.32-176.213 30.293-98.987 2.56-200.533-71.253-265.387-48.64-43.52-110.507-67.413-174.933-67.413zM237.657 74.667c-0.853 0-1.707 0-2.133 0-122.88 8.533-178.773 104.96-178.773 190.72s55.893 181.76 178.773 190.72c31.573 0.427 62.72-6.827 90.027-20.48 15.787-8.107 21.76-27.307 14.080-43.093-8.107-15.787-27.307-21.76-43.093-14.080-17.92 9.387-38.4 13.227-58.027 13.653-80.64-5.973-117.333-67.84-117.333-126.72s36.693-120.747 119.467-126.72c17.493-1.28 30.72-16.64 29.44-34.133-1.707-17.067-15.787-29.867-32.427-29.867zM675.012 506.027c-11.52 0-23.040 6.4-28.587 17.92-8.107 15.788-1.707 34.988 14.507 43.095 26.027 13.227 55.467 20.48 84.48 20.907 16.64-0.853 32.427-13.653 32.427-31.573 0.427-17.493-13.653-32.428-31.573-32.428-19.627-0.427-39.253-5.12-57.173-14.080-4.267-2.987-9.387-3.84-14.080-3.84zM553.417 74.667h-170.667c-17.493 0-32 14.507-32 32s14.507 32 32 32h170.667c17.493 0 32-14.507 32-32s-14.080-32-32-32zM468.083-10.667c-17.493 0-32 14.507-32 32v170.667c0 17.493 14.507 32 32 32s32-14.507 32-32v-170.667c0-17.493-14.080-32-32-32z" />
<glyph unicode="&#x39;" glyph-name="cloud-remove4" d="M553.378 176.644c-8.107 0-16.213 2.987-22.613 9.387l-90.027 90.027c-12.373 12.373-12.373 32.853 0 45.227s32.853 12.373 45.227 0l90.027-90.027c12.373-12.373 12.373-32.853 0-45.227-5.973-6.4-14.507-9.387-22.613-9.387zM462.059 175.36c-8.107 0-16.213 2.987-22.613 9.387-12.373 12.373-12.373 32.853 0 45.227l90.027 90.027c12.373 12.373 32.853 12.373 45.227 0s12.373-32.853 0-45.227l-90.027-90.027c-5.973-5.973-14.080-9.387-22.613-9.387zM318.263 134.822h-81.92c-125.44 8.96-181.76 105.387-181.76 191.573s56.32 182.613 179.627 191.147c17.067 1.707 32.853-11.947 34.133-29.867s-11.947-32.853-29.867-34.133c-82.773-5.973-119.893-68.267-119.893-127.573s37.12-121.6 119.893-127.573h79.787c17.493 0 32-14.507 32-32s-14.507-31.573-32-31.573zM711.249 134.827c-0.853 0-1.28 0-2.133 0-17.493 0-33.707 14.507-33.707 32 0 18.347 14.080 32 31.573 32 52.907 0 99.413 18.347 136.107 51.2 66.56 58.027 70.827 141.653 52.907 200.533-17.92 58.453-67.84 125.44-154.88 136.107-14.080 1.707-25.173 12.373-27.733 26.453-17.067 102.4-72.107 173.227-155.733 198.827-86.613 26.88-186.879 0.427-249.599-65.28-61.013-63.573-75.093-152.747-39.68-250.88 5.973-16.64-2.56-34.987-19.2-40.96s-34.987 2.56-40.96 19.2c-43.093 120.32-23.467 235.52 53.76 316.587 78.933 82.773 205.652 115.627 314.452 82.347 99.84-30.72 170.24-113.067 195.84-227.413 87.467-19.627 157.013-85.76 184.747-177.067 30.293-99.413 2.987-201.813-71.253-266.667-47.787-42.667-109.653-66.987-174.507-66.987zM512 9.387c-85.76 0-165.973 45.653-209.92 119.467-4.693 7.253-9.387 16.213-13.227 25.173-14.507 30.293-22.187 64.427-22.187 100.693 0 135.253 110.080 245.333 245.333 245.333s245.333-110.080 245.333-245.333c0-36.267-7.68-70.4-22.613-101.973-3.413-8.107-8.107-16.64-13.227-24.747-43.52-72.96-123.733-118.613-209.493-118.613zM512 436.053c-99.84 0-181.333-81.493-181.333-181.333 0-26.453 5.547-51.627 16.213-73.813 3.413-7.253 6.4-13.227 9.813-18.773 32.427-55.040 91.733-88.747 154.88-88.747s122.453 33.707 154.453 87.893c3.84 6.4 6.827 11.947 9.813 18.347 11.52 23.467 17.067 48.213 17.067 75.093 0.427 99.84-81.067 181.333-180.907 181.333z" />
<glyph unicode="&#x3a;" glyph-name="cloud-snow4" d="M710.379 74.667c-0.427 0-1.28 0-1.707 0-17.493 0-32 14.507-31.573 32.427 0 17.493 15.787 33.28 32.427 31.573 46.933 0 96.427 17.92 132.693 51.2 66.133 58.027 70.827 140.8 52.907 199.253s-67.84 124.587-154.027 135.68c-14.080 1.707-25.173 12.373-27.733 26.453-16.64 101.973-72.107 172.373-154.88 197.973-86.187 26.453-185.6 0.427-247.894-64.853-60.587-63.574-74.667-151.893-39.68-249.6 5.973-16.64-2.56-34.987-19.2-40.96s-34.987 2.56-40.96 19.2c-43.093 119.893-23.467 234.666 53.76 315.306 78.933 82.347 204.374 115.2 313.174 81.493 99.413-30.72 169.813-112.64 194.987-226.133 87.040-19.627 156.587-85.333 184.32-176.213 30.293-98.987 2.987-200.533-71.253-265.387-49.067-43.52-110.933-67.413-175.36-67.413zM237.657 74.662c-0.853 0-1.707 0-2.133 0-122.88 8.533-178.773 104.96-178.773 190.72s55.893 181.76 178.773 190.72c32.427-0.427 62.72-6.827 90.027-20.48 15.787-8.107 21.76-27.307 14.080-43.093-8.107-15.787-27.307-21.76-43.093-14.080-17.92 9.387-37.973 13.653-58.027 13.653-80.64-5.973-117.333-67.84-117.333-126.72s36.693-120.747 119.040-126.72c17.493-1.28 30.72-16.64 29.867-34.133-1.707-17.067-15.787-29.867-32.427-29.867zM675.012 506.027c-11.947 0-23.040 6.4-28.587 17.92-8.107 15.788-1.707 34.988 14.507 43.095 26.027 13.227 55.467 20.48 84.48 20.907h0.427c17.493 0 31.573-14.080 32-31.573s-13.653-32.428-31.573-32.428c-19.627-0.427-39.253-5.12-57.173-14.080-4.693-2.987-9.387-3.84-14.080-3.84zM553.835 149.333c-23.893 0-42.667 19.2-42.667 42.667s19.2 42.667 42.667 42.667c23.467 0 42.667-19.2 42.667-42.667s-19.2-42.667-42.667-42.667zM383.167 149.333c-23.893 0-42.667 19.2-42.667 42.667s19.2 42.667 42.667 42.667c23.467 0 42.667-19.2 42.667-42.667s-19.2-42.667-42.667-42.667zM468.501 21.333c-23.893 0-42.668 19.2-42.668 42.667s19.201 42.667 42.668 42.667c23.467 0 42.667-19.2 42.667-42.667s-19.2-42.667-42.667-42.667z" />
<glyph unicode="&#x3b;" glyph-name="cloud-sunny4" d="M711.223 71.258c-0.853 0-1.28 0-1.707 0h-473.173c-125.44 8.96-181.76 105.813-181.76 191.573 0 76.8 44.8 162.133 142.080 185.6-42.667 163.838 38.4 278.611 133.973 332.798 110.933 63.147 276.053 63.573 376.32-58.027 0.853-1.28 1.707-2.56 2.56-3.84 29.867-37.973 50.773-83.627 62.72-136.533 52.48-11.52 97.707-39.68 133.12-81.491 80.64-95.147 96-260.693-19.2-362.24-47.787-43.947-109.653-67.84-174.933-67.84zM490.21 759.469c-45.227 0-90.027-12.373-127.573-33.707-103.253-58.88-138.24-168.107-93.867-292.691 3.413-9.813 2.133-20.907-3.84-29.013s-15.787-13.653-26.027-13.653c-82.773-5.973-119.893-68.267-119.893-127.573s37.12-121.6 119.893-128h471.040c49.493-0.427 97.28 17.92 133.547 51.2l0.427 0.427c86.613 75.947 73.813 200.96 12.8 273.067-29.867 35.413-69.547 57.173-115.2 63.147-14.080 1.707-25.173 12.371-27.307 26.451-8.96 52.907-27.733 97.28-55.893 132.267-0.853 0.853-1.28 2.133-2.133 2.987-45.227 52.907-105.813 75.093-165.973 75.093zM309.753 372.902c-4.693 0-9.813 1.28-14.080 3.413-17.92 8.96-37.547 13.653-57.6 14.080-17.493 0.427-31.573 14.933-31.573 32.427 0.427 17.493 17.067 32 32.427 31.573 29.44-0.427 58.88-7.68 84.907-20.907 15.787-7.68 22.187-27.307 14.507-43.093-5.547-11.093-16.64-17.493-28.587-17.493zM676.267 504.747c-11.947 0-23.040 6.4-28.587 17.92-8.107 15.788-1.28 34.988 14.507 43.094 26.453 13.227 55.893 20.48 84.907 20.907 17.067 0.427 32.427-13.653 32.427-31.573 0.427-17.493-13.653-32.428-31.573-32.428-19.627-0.427-39.68-5.12-57.6-14.080-4.693-2.56-9.387-3.84-14.080-3.84zM881.067 448.853c-8.96 0-18.347 3.84-24.747 11.52-29.44 35.413-69.547 57.173-115.2 63.147-14.080 1.707-25.173 12.373-27.307 26.453-8.96 52.907-27.733 97.28-55.893 132.267-4.693 5.547-7.253 12.8-7.253 20.053 0 8.533 3.413 17.067 9.387 23.040 34.133 34.56 79.36 53.333 128 53.333 99.84 0 181.333-81.493 181.333-181.333 0-55.467-24.747-107.093-68.267-141.653-5.973-4.693-12.8-6.827-20.053-6.827zM772.693 582.827c40.96-8.96 78.080-28.16 108.8-56.32 15.36 20.053 23.893 44.8 23.893 70.827 0 64.853-52.48 117.333-117.333 117.333-22.187 0-43.52-5.973-61.867-17.92 21.76-32.853 37.12-71.253 46.507-113.92z" />
<glyph unicode="&#x3c;" glyph-name="code4" d="M294.011 288c-11.947 0-23.040 6.4-28.587 17.493-8.107 15.787-1.707 34.987 14.507 43.093 37.12 18.347 68.693 46.507 91.307 80.64 7.68 11.52 7.68 26.027 0 37.547-23.040 34.133-54.613 62.293-91.307 80.639-16.213 7.68-22.613 26.88-14.507 43.093 7.68 15.787 26.88 22.187 42.667 14.080 46.933-23.467 87.040-58.88 116.053-102.399 21.761-32.853 21.761-75.52 0-108.373-29.013-43.52-69.12-78.933-116.053-102.4-4.267-2.133-9.387-3.413-14.080-3.413zM725.333 288h-170.667c-17.493 0-32 14.507-32 32s14.507 32 32 32h170.667c17.493 0 32-14.507 32-32s-14.507-32-32-32zM640-10.667h-256c-231.68 0-330.667 98.987-330.667 330.667v256c0 231.68 98.987 330.667 330.667 330.667h256c231.68 0 330.667-98.987 330.667-330.667v-256c0-231.68-98.987-330.667-330.667-330.667zM384 842.667c-196.693 0-266.667-69.973-266.667-266.667v-256c0-196.693 69.973-266.667 266.667-266.667h256c196.693 0 266.667 69.973 266.667 266.667v256c0 196.693-69.973 266.667-266.667 266.667h-256z" />
<glyph unicode="&#x3d;" glyph-name="code-14" d="M384.040 202.671c-4.693 0-9.813 1.28-14.080 3.413-32.853 16.64-61.013 41.387-81.493 72.107-17.067 25.6-17.067 58.453 0 84.053 20.48 30.72 48.64 55.467 81.493 71.68 15.787 8.107 34.987 1.28 43.093-14.507s1.707-34.987-14.507-43.093c-23.040-11.52-42.667-29.013-56.747-50.347-2.56-3.84-2.56-8.96 0-13.227 14.080-21.333 33.707-38.827 56.747-50.347 15.787-8.107 22.187-27.307 14.507-43.093-5.973-10.24-17.493-16.64-29.013-16.64zM648.926 202.671c-11.947 0-23.040 6.4-28.587 17.493-8.107 15.787-1.707 34.987 14.507 43.093 23.040 11.52 42.667 29.013 56.747 50.347 2.56 3.84 2.56 8.96 0 13.227-14.080 21.333-33.707 38.827-56.747 50.347-15.787 8.107-22.187 27.307-14.507 43.093 8.107 15.787 27.307 22.187 43.093 14.507 32.853-16.64 61.013-41.387 81.493-72.107 17.067-25.6 17.067-58.453 0-84.053-20.48-30.72-48.64-55.467-81.493-71.68-5.12-2.987-9.813-4.267-14.507-4.267zM640-10.667h-256c-231.68 0-330.667 98.987-330.667 330.667v256c0 231.68 98.987 330.667 330.667 330.667h256c231.68 0 330.667-98.987 330.667-330.667v-256c0-231.68-98.987-330.667-330.667-330.667zM384 842.667c-196.693 0-266.667-69.973-266.667-266.667v-256c0-196.693 69.973-266.667 266.667-266.667h256c196.693 0 266.667 69.973 266.667 266.667v256c0 196.693-69.973 266.667-266.667 266.667h-256zM95.167 586.24c-17.493 0-32 14.507-32 32s14.080 32 32 32l820.055 0.427c17.493 0 32-14.507 32-32s-14.080-32-32-32l-820.055-0.427z" />
<glyph unicode="&#x3e;" glyph-name="code-circle4" d="M341.31 330.667c-8.107 0-16.213 2.987-22.613 9.387l-85.333 85.333c-12.373 12.373-12.373 32.858 0 45.231l85.333 85.332c12.373 12.373 32.853 12.373 45.227 0s12.373-32.856 0-45.229l-62.72-62.72 62.72-62.716c12.373-12.373 12.373-32.858 0-45.231-6.4-6.4-14.507-9.387-22.613-9.387zM682.645 330.667c-8.107 0-16.213 2.987-22.613 9.387-12.373 12.373-12.373 32.858 0 45.231l62.72 62.716-62.72 62.72c-12.373 12.373-12.373 32.856 0 45.229s32.853 12.373 45.227 0l85.333-85.332c12.373-12.373 12.373-32.858 0-45.231l-85.333-85.333c-6.4-6.4-14.507-9.387-22.613-9.387zM512-10.667c-253.013 0-458.667 205.653-458.667 458.667s205.653 458.667 458.667 458.667c253.013 0 458.667-205.653 458.667-458.667s-205.653-458.667-458.667-458.667zM512 842.667c-217.6 0-394.667-177.067-394.667-394.667s177.067-394.667 394.667-394.667c217.6 0 394.667 177.067 394.667 394.667s-177.067 394.667-394.667 394.667zM469.338 316.582c-4.267 0-8.533 0.853-12.373 2.56-16.213 6.827-23.893 25.6-16.64 42.24l85.333 199.256c6.827 16.213 25.6 23.894 41.813 16.641 16.213-6.827 23.893-25.603 16.64-42.243l-85.333-199.254c-5.12-11.947-17.067-19.2-29.44-19.2z" />
<glyph unicode="&#x3f;" glyph-name="coffee4" d="M579.413-10.667h-314.453c-116.907 0-211.627 95.147-211.627 211.627v312.32c0 116.906 95.147 211.626 211.627 211.626h314.453c116.907 0 211.627-95.147 211.627-211.626v-312.32c0-116.48-95.147-211.627-211.627-211.627zM264.96 660.906c-81.493 0-147.627-66.133-147.627-147.626v-312.32c0-81.493 66.133-147.627 147.627-147.627h314.453c81.493 0 147.627 66.133 147.627 147.627v312.32c0 81.493-66.133 147.626-147.627 147.626h-314.453zM234.667 757.333c-17.493 0-32 14.507-32 32v74.667c0 17.493 14.507 32 32 32s32-14.507 32-32v-74.667c0-17.493-14.507-32-32-32zM405.333 757.333c-17.493 0-32 14.507-32 32v74.667c0 17.493 14.507 32 32 32s32-14.507 32-32v-74.667c0-17.493-14.507-32-32-32zM576 757.333c-17.493 0-32 14.507-32 32v74.667c0 17.493 14.507 32 32 32s32-14.507 32-32v-74.667c0-17.493-14.507-32-32-32zM759.002 186.88c-17.493 0-32 14.507-32 32v359.255c0 17.493 14.507 32 32 32 116.907 0 211.627-95.149 211.627-211.629s-95.147-211.627-211.627-211.627zM791.002 542.722v-288.429c66.133 14.507 115.627 73.813 115.627 144.213s-49.493 129.707-115.627 144.215zM747.093 416h-661.76c-17.493 0-32 14.507-32 32s14.507 32 32 32h661.76c17.493 0 32-14.507 32-32s-14.507-32-32-32z" />
<glyph unicode="&#x40;" glyph-name="coin4" d="M462.507 382.285h-64c-49.067 0-88.747 40.96-88.747 91.733 0 17.493 14.507 32 32 32s32-14.507 32-32c0-15.36 11.093-27.733 24.747-27.733h64c9.813 0 17.493 8.96 17.493 20.053 0 14.933-2.56 15.787-12.373 19.2l-102.827 35.84c-37.12 12.8-55.467 38.827-55.467 79.36 0 46.080 36.693 84.053 81.493 84.053h64c49.067 0 88.747-40.96 88.747-91.733 0-17.493-14.507-32-32-32s-32 14.507-32 32c0 15.36-11.093 27.733-24.747 27.733h-64c-9.813 0-17.493-8.96-17.493-20.053 0-14.933 2.56-15.787 12.373-19.2l102.827-35.84c37.12-13.227 55.040-39.253 55.040-79.36 0.427-46.507-36.267-84.053-81.067-84.053zM426.667 348.156c-17.493 0-32 14.507-32 32v31.573c0 17.493 14.507 32 32 32s32-14.507 32-32v-31.573c0-17.92-14.507-32-32-32zM426.667 621.22c-17.493 0-32 14.507-32 32v33.28c0 17.493 14.507 32 32 32s32-14.507 32-32v-33.28c0-17.493-14.507-32-32-32zM426.24 161.271c-205.653 0-372.907 167.253-372.907 372.905s167.253 372.907 372.907 372.907 372.907-167.253 372.907-372.907c0-205.652-167.68-372.905-372.907-372.905zM426.24 842.657c-170.24 0-308.907-138.667-308.907-308.907s138.667-308.479 308.907-308.479 308.907 138.667 308.907 308.905c0 170.24-138.667 308.48-308.907 308.48zM726.144-9.378c-78.933 0-153.173 38.4-198.827 103.253-10.24 14.507-6.827 34.56 7.68 44.8s34.56 6.827 44.8-7.68c33.707-47.787 88.32-75.947 146.347-75.947 98.987 0 179.2 80.213 179.2 179.2 0 57.6-28.16 112.213-75.093 145.92-14.507 10.24-17.493 30.293-7.253 44.8s30.293 17.493 44.8 7.253c63.573-45.653 101.547-119.467 101.547-197.973 0-134.827-108.8-243.627-243.2-243.627z" />
<glyph unicode="&#x41;" glyph-name="coin-14" d="M512-10.662c-170.667 0-309.333 122.453-309.333 273.067v157.867c0 17.493 14.507 32 32 32s32-14.507 32-32c0-111.787 105.387-196.267 245.333-196.267s245.333 84.48 245.333 196.267c0 17.493 14.507 32 32 32s32-14.507 32-32v-157.867c0-150.613-138.667-273.067-309.333-273.067zM266.667 257.711c2.987-113.067 111.787-204.373 245.333-204.373s242.347 91.307 245.333 204.373c-55.467-60.16-143.36-97.707-245.333-97.707s-189.44 37.547-245.333 97.707zM512 373.333c-117.76 0-223.574 52.907-275.2 138.24-22.187 36.267-34.133 78.507-34.133 122.027 0 73.387 32.853 142.507 92.16 194.56 58.027 50.773 135.253 78.507 217.173 78.507s158.72-27.733 217.173-78.080c59.307-52.48 92.16-121.6 92.16-194.987 0-43.52-11.947-85.333-34.133-122.027-51.627-85.333-157.44-138.24-275.2-138.24zM512 842.667c-66.56 0-128.853-22.187-175.36-63.147-45.227-39.253-69.974-91.307-69.974-145.92 0-32 8.533-61.867 24.746-88.747 40.533-66.56 125.014-107.52 220.587-107.52s180.053 41.387 220.587 107.52c16.64 26.88 24.747 56.747 24.747 88.747 0 54.613-24.747 106.667-70.4 146.773-46.507 40.107-108.373 62.293-174.933 62.293zM512 160c-176.213 0-309.333 111.787-309.333 260.267v213.333c0 150.613 138.667 273.067 309.333 273.067 81.92 0 158.72-27.733 217.173-78.080 59.307-52.48 92.16-121.6 92.16-194.987v-213.333c0-148.48-133.12-260.267-309.333-260.267zM512 842.667c-135.253 0-245.333-93.867-245.333-209.067v-213.333c0-111.787 105.387-196.267 245.333-196.267s245.333 84.48 245.333 196.267v213.333c0 54.613-24.747 106.667-70.4 146.773-46.507 40.107-108.373 62.293-174.933 62.293z" />
</font>
</defs>
</svg>
